img image001 image001 image001 image001 image001 image001 image001 image001 image001 image001 image001 image001 image001 image001 image001

Planets Sun Sun Sun
Статистика раздачи
Автор: PriZraK | Размер: 9.44 ГБ | Добавлен: 15 фев 2014
Раздают: 368    Качают: 85
Скачать торрент
Скачать торрент
Описание торрента

СообщениеДобавлено: 15 фев 2014 




Оригинальное название: Шерлок Холмс
Год выпуска: 2013
Жанр: Детектив
Режиссер: Андрей Кавун
В ролях: Игорь Петренко, Андрей Панин, Леонид Ярмольник, Михаил Боярский, Лянка Грыу, Ингеборга Дапкунайте, Алексей Горбунов, Александр Голубев, Игорь Скляр, Александр Адабашьян, Ольга Красько, Андрей Мерзликин, Дмитрий Лысенков, Елизавета Боярская

Описание: Этот сериал возвращает нас на Бейкер-стрит, 221б, где проживают уже давно знакомые персонажи: гениальный сыщик Шерлок Холмс и его друг и летописец, ветеран афганской войны доктор Джон Ватсон. Только теперь у них новые лица: главные роли исполняют звёзды нового актёрского поколения, Игорь Петренко и Андрей Панин. История, как и прежде, начинается со знакомства: доктор Ватсон, в поисках жилья в Лондоне, снимает квартиру у добропорядочной вдовы, миссис Хадсон, на пару с весьма эксцентричным молодым человеком, чей род занятий он никак не может вычислить. Ватсон приходит к выводу, что его сосед — злоумышленник и преступник, но выясняется, что всё ровно наоборот: Шерлок Холмс — гроза преступного мира, знаменитый частный сыщик, к услугам которого Скотленд-Ярд прибегает, когда чувствует своё бессилие (а происходит это регулярно). Доктор вовлекается в захватывающую жизнь своего нового друга, становится его постоянным напарником в расследованиях — и пишет рассказы об их совместных похождениях.

Выпущено: Россия, Централ Партнершип
Продолжительность: 16 x ~ 00:45:00
Язык: Русский

Качество: SATRip
Видео: XviD, ~ 1550 Кбит/с, 720x400
Аудио rus: AC3, 2 ch, 192 Кбит/с

Полное имя : E:Sherlock HolmesSherlock Holmes.01.tahiy.avi
Формат : AVI
Формат/Информация : Audio Video Interleave
Размер файла : 710 Мбайт
Продолжительность : 54 м.
Общий поток : 1809 Кбит/сек
Название фильма : Sherlock Holmes - = Rip by tahiy = -
Программа кодирования : VirtualDubMod 1.5.10.3 | www.virtualdub-fr.org || (build 2550/release)

Видео
Идентификатор : 0
Формат : MPEG-4 Visual
Профиль формата : Advanced Simple@L5
Параметр BVOP формата : 1
Параметр QPel формата : Нет
Параметр GMC формата : Без точки перехода
Параметр матрицы формата : Default (MPEG)
Идентификатор кодека : XVID
Идентификатор кодека/Подсказка : XviD
Продолжительность : 54 м.
Битрейт : 1608 Кбит/сек
Ширина : 720 пикселей
Высота : 400 пикселей
Соотношение сторон : 16:9
Частота кадров : 25,000 кадров/сек
Цветовое пространство : YUV
Субдискретизация насыщенности : 4:2:0
Битовая глубина : 8 бит
Тип развёртки : Прогрессивная
Метод сжатия : С потерями
Бит/(Пиксели*Кадры) : 0.223
Размер потока : 631 Мбайт (89%)
Библиотека кодирования : XviD 1.2.1 (UTC 2008-12-04)

Аудио
Идентификатор : 1
Формат : AC-3
Формат/Информация : Audio Coding 3
Расширение режима : CM (complete main)
Параметр Endianness формата : Big
Идентификатор кодека : 2000
Продолжительность : 54 м.
Вид битрейта : Постоянный
Битрейт : 192 Кбит/сек
Каналы : 2 канала
Расположение каналов : Front: L R
Частота : 48,0 КГц
Битовая глубина : 16 бит
Метод сжатия : С потерями
Размер потока : 75,4 Мбайт (11%)
Выравнивание : Разделение по промежуткам
Продолжительность промежутка : 40 мс. (1,00 видеокадр)
Время предзагрузки промежутка : 500 мс.



Внимание! Раздача ведётся путём добавления новых серий; при каждом добавлении создfётся новый торрент. Чтобы начать докачку новой серии, пользователям необходимо сделать следующее: (1) остановить скачивание, (2) удалить старый торрент у себя из клиента (старые серии удалять не надо), (3) скачать новый торрент и запустить его у себя в клиенте вместо старого, при этом указать клиенту путь в старую папку куда и должно происходить скачивание новых серий.

Ваш клиент при этом должен произвести хеширование (проверку) старой папки (если не производит сам - помогите ему сделать это), и будет докачивать только те серии которых у вас ещё нет. Старые серии при этом не удаляются, а продолжают раздаваться!

Eсли вы уже удалили старые серии, то предотвратить повторную закачку старых серий можно, отжав галочку в соответсвующих местах при запуске нового торрента.



   Похожие торренты   Торрент   Размер 
В этой теме нет новых непрочитанных сообщений. Шерлок Холмс [01-16 из 16] (2013) SATRip

61 | 12

8.65 ГБ

В этой теме нет новых непрочитанных сообщений. Шерлок Холмс [S01] (2013) SATRip | iPhone

8 | 16

3.7 ГБ

В этой теме нет новых непрочитанных сообщений. Двенадцатилетний Шерлок Холмс (2011) SATRip - BigFANgroup

0 | 3

1.46 ГБ

В этой теме нет новых непрочитанных сообщений. Шерлок Холмс и Доктор Ватсон. Рождение Легенды (2009) SATRip

4 | 4

500.15 МБ

В этой теме нет новых непрочитанных сообщений. Шерлок Холмс / Sherlock [S01-02] (2010-2012) SATRip | Первый канал

178 | 74

8.21 ГБ

В этой теме нет новых непрочитанных сообщений. Шерлок Холмс [01-16 из 16] (2013) 4xDVD9 | Лицензия

65 | 14

28.06 ГБ

В этой теме нет новых непрочитанных сообщений. Шерлок Холмс [01-08 из 08] (2013) WEB-DL 1080p от MediaClub

59 | 34

20.6 ГБ




Вы не можете начинать темы
Вы не можете отвечать на сообщения
Вы не можете редактировать свои сообщения
Вы не можете удалять свои сообщения
Вы не можете добавлять вложения

Перейти:  
Для Мосгорсуда, Роскомнадзора и рекламодателей: mosgorsud-torrent[собачка]yandex.ru
 Вход
ppkBB3cker v.2 © 2008-2014 @ PPK
[ Time : 0.067s | 15 Queries | GZIP : On ]

Торрент трекер RUTOR.IN, Не можете зайти на rutor.org? Какой новый адрес рутор? Какое зеркало рутор? Не работает rutor.org и зеркала? Тогда наш торрент специально для вас. Rutor.in неофициальное зеркало rutor. В случае если у Вас заблокирован rutor или вдруг Вы не можете на него зайти, то Вы без труда сможете скачать бесплатно и без рекламы последние новинки кино, игр, сериалов и прочего у нас, на Rutor.in. Не нужно использовать прокси, чтобы зайти на рутор, достаточно воспользоваться нашим ресурсом. Все новые фильмы, игры, сериалы, книги и музыка за 2013 и 2014 годы через торрент бесплатно. Скачивайте фильмы в хорошем качестве, игры для пк, xbox, playstation без регистрации. У нас вы найдете новые Зарубежные сериалы и Русские сериалы 2013, 2014, 2015 годов. Оставайтесь с нами, качайте любимые фильмы, игры, сериалы, книги и музыку.
cron