img image001 image001 image001 image001 image001 image001 image001 image001 image001 image001 image001 image001 image001 image001 image001

Planets Sun Sun Sun
Статистика раздачи
Автор: PriZraK | Размер: 5.12 ГБ | Добавлен: 15 фев 2014
Раздают: 0    Качают: 2
Скачать торрент
Скачать торрент
Описание торрента

СообщениеДобавлено: 15 фев 2014 




Информация о фильме
Название: Чужой среди своих / Родина
Оригинальное название: Homeland
Год выхода: 2013
Жанр: триллер, драма, детектив
Режиссер: Майкл Куэста | Michael Cuesta, Кларк Джонсон | Clark Johnson, Джеффри Начманофф | Jeffrey Nachmanoff
В ролях: Клэр Дэйнс, Дэмиэн Льюис, Мэнди Пэтинкин, Морена Баккарин, Дэвид Хэрвуд, Джексон Паке, Морган Сэйлор, Диего Клаттенхофф, Руперт Френд, Дэвид Марсиано и др.

О фильме:
Шпионская драма продолжается. Суперинтересные первый и второй сезоны этого телешедевра уже позади, но нас ожидает новый виток сюжета. Сотрудницу ЦРУ Кэрри отправят в психлечебницу, и история сконцентрируется на семье офицера Броуди, в особенности, на его дочери, которая приняла ислам. Ну и конечно снова ожидаетсят много прослушки, перехватов, дезинформации и борьбы с терроризмом на благо Америки.
Страна: США
Студия: Cherry Pie Productions, Fox 21, Keshet Broadcasting, Showtime Networks Inc., Teakwood Lane Productions
Продолжительность серии: ~55 мин.
Перевод: Профессиональный (многоголосый закадровый) (Пифагор)
Оригинальная аудиодорожка: английский



Файл
Кодек: XviD
Качество: WEB-DLRip
Видео: MPEG4, XviD, 720x400 (16:9), 23.976 fps, 1 413 Kbps (0.205 bit/pixel)
Аудио #1: MP3, 48.0 KHz, 2 ch, 128 Kbps, CBR (Rus)
Аудио #2: MP3, 48.0 KHz, 2 ch, 128 Kbps, CBR (Eng)
Субтитры: отсутствуют

Семпл

Код:
General
Complete name                            : Homeland s03e01.avi
Format                                   : AVI
Format/Info                              : Audio Video Interleave
File size                                : 699 MiB
Duration                                 : 58mn 5s
Overall bit rate                         : 1 683 Kbps
Writing application                      : VirtualDubMod 1.5.10.2 (build 2540/release)
Writing library                          : VirtualDubMod build 2540/release

Video
ID                                       : 0
Format                                   : MPEG-4 Visual
Format profile                           : Advanced Simple@L5
Format settings, BVOP                    : 2
Format settings, QPel                    : No
Format settings, GMC                     : No warppoints
Format settings, Matrix                  : Default (MPEG)
Codec ID                                 : XVID
Codec ID/Hint                            : XviD
Duration                                 : 58mn 5s
Bit rate                                 : 1 413 Kbps
Width                                    : 720 pixels
Height                                   : 400 pixels
Display aspect ratio                     : 16:9
Frame rate                               : 23.976 fps
Color space                              : YUV
Chroma subsampling                       : 4:2:0
Bit depth                                : 8 bits
Scan type                                : Progressive
Compression mode                         : Lossy
Bits/(Pixel*Frame)                       : 0.205
Stream size                              : 587 MiB (84%)
Writing library                          : XviD 64

Audio #1
ID                                       : 1
Format                                   : MPEG Audio
Format version                           : Version 1
Format profile                           : Layer 3
Mode                                     : Joint stereo
Mode extension                           : MS Stereo
Codec ID                                 : 55
Codec ID/Hint                            : MP3
Duration                                 : 58mn 5s
Bit rate mode                            : Constant
Bit rate                                 : 128 Kbps
Channel(s)                               : 2 channels
Sampling rate                            : 48.0 KHz
Compression mode                         : Lossy
Stream size                              : 53.2 MiB (8%)
Alignment                                : Aligned on interleaves
Interleave, duration                     : 42 ms (1.00 video frame)
Interleave, preload duration             : 504 ms

Audio #2
ID                                       : 2
Format                                   : MPEG Audio
Format version                           : Version 1
Format profile                           : Layer 3
Mode                                     : Joint stereo
Mode extension                           : MS Stereo
Codec ID                                 : 55
Codec ID/Hint                            : MP3
Duration                                 : 58mn 5s
Bit rate mode                            : Constant
Bit rate                                 : 128 Kbps
Channel(s)                               : 2 channels
Sampling rate                            : 48.0 KHz
Compression mode                         : Lossy
Stream size                              : 53.2 MiB (8%)
Alignment                                : Aligned on interleaves
Interleave, duration                     : 42 ms (1.00 video frame)
Interleave, preload duration             : 504 ms
Раздача ведётся путём добавления новых серий; при каждом добавлении создаётся новый торрент. Чтобы начать докачку новой серии, пользователям необходимо сделать следующее:
остановить скачивание,
удалить старый торрент у себя из клиента (старые серии удалять не надо),
скачать новый торрент и запустить его у себя в клиенте вместо старого, при этом указать клиенту путь в старую папку куда и должно происходить скачивание новых серий.
Ваш клиент при этом должен произвести хеширование (проверку) старой папки (если не производит сам - помогите ему сделать это), и будет докачивать только те серии которых у вас ещё нет. Старые серии при этом не удаляются, а продолжают раздаваться!
Eсли вы уже удалили старые серии, то предотвратить повторную закачку старых серий можно, отжав галочку в соответствующих местах при запуске нового торрента. По возможности, желательно не удалять старые серии как можно дольше чтобы релизёр не столько продолжал раздавать старые серии, а смог сконцентрироваться на новых.


Релиз от:



   Похожие торренты   Торрент   Размер 
В этой теме нет новых непрочитанных сообщений. Чужой среди своих / Родина / Homeland [03x01-10] (2013) WEB-DLRip | P

4 | 2

5.56 ГБ

В этой теме нет новых непрочитанных сообщений. Чужой среди своих / Родина / Homeland [03x01-11] (2013) WEB-DLRip | P

2 | 2

6.36 ГБ

В этой теме нет новых непрочитанных сообщений. Родина / Чужой среди своих / Homeland [02-03x01-22 из 25] (2012-2013) WEB-DLRip-AVC 720p l LostFilm

1 | 2

27.58 ГБ

В этой теме нет новых непрочитанных сообщений. Чужой среди своих / Родина / Homeland [03x01] (2013) HDTVRip | Sub

2 | 2

469.79 МБ

В этой теме нет новых непрочитанных сообщений. Родина / Чужой среди своих / Homeland [03x01] (2013) WEB-DL 720p | LostFilm

1 | 3

1.96 ГБ

В этой теме нет новых непрочитанных сообщений. Родина / Чужой среди своих / Homeland [03x01-11 из 12] (2013) WEB-DL 720p | LostFilm

0 | 2

18.75 ГБ

В этой теме нет новых непрочитанных сообщений. Родина / Чужой среди своих / Homeland [03x01-03 из 12] (2013) WEB-DL 720p | LostFilm

1 | 2

5.4 ГБ




Вы не можете начинать темы
Вы не можете отвечать на сообщения
Вы не можете редактировать свои сообщения
Вы не можете удалять свои сообщения
Вы не можете добавлять вложения

Перейти:  
Для Мосгорсуда, Роскомнадзора и рекламодателей: mosgorsud-torrent[собачка]yandex.ru
 Вход
ppkBB3cker v.2 © 2008-2014 @ PPK
[ Time : 0.057s | 14 Queries | GZIP : Off ]

Торрент трекер RUTOR.IN, Не можете зайти на rutor.org? Какой новый адрес рутор? Какое зеркало рутор? Не работает rutor.org и зеркала? Тогда наш торрент специально для вас. Rutor.in неофициальное зеркало rutor. В случае если у Вас заблокирован rutor или вдруг Вы не можете на него зайти, то Вы без труда сможете скачать бесплатно и без рекламы последние новинки кино, игр, сериалов и прочего у нас, на Rutor.in. Не нужно использовать прокси, чтобы зайти на рутор, достаточно воспользоваться нашим ресурсом. Все новые фильмы, игры, сериалы, книги и музыка за 2013 и 2014 годы через торрент бесплатно. Скачивайте фильмы в хорошем качестве, игры для пк, xbox, playstation без регистрации. У нас вы найдете новые Зарубежные сериалы и Русские сериалы 2013, 2014, 2015 годов. Оставайтесь с нами, качайте любимые фильмы, игры, сериалы, книги и музыку.