img image001 image001 image001 image001 image001 image001 image001 image001 image001 image001 image001 image001 image001 image001 image001

Planets Sun Sun Sun
Статистика раздачи
Автор: PriZraK | Размер: 1.34 ГБ | Добавлен: 15 фев 2014
Раздают: 5    Качают: 3
Скачать торрент
Скачать торрент
Описание торрента

СообщениеДобавлено: 15 фев 2014 




Информация о фильме
Название: Папочка
Оригинальное название: Baby Daddy
Год выхода: 2012
Жанр: комедия, ситком
Режиссер: Майкл Лембек, Арлин Санфорд, Робби Кантримэн
В ролях: Жан-Люк Билодо, Таж Моури, Дерек Телер, Мелисса Питерман, Челси Кейн, Али Луиз Хартман

О фильме:
Сериал рассказывает о Бене, парне 20 с небольшим, которому бывшая подружка оставляет ребенка под дверью. Бен решает растить дочку самостоятельно. Помогает ему с этим мать Бонни, брат Дэнни, лучший друг Такер и близкая подруга Райли, которая втайне влюблена в Бена.
Официальный сайт

Страна: США
Студия: ABC Family
Продолжительность: ~ 00:21:00 серия
Перевод: Любительский (многоголосый закадровый) - (DreamRecords)

Файл
Кодек: XviD / MP3
Качество: HDTVRip
Видео: 720x400, 23.976 fps, ~1 295 kbps avg, 0.188 bit/pixel
Звук: MP3, 48 kHz, 2 ch, 192 kbps

Общее
Полное имя : D:DownloadsПапочка (Сезон 2) Baby Daddy (2013) HDTVRip - DreamRecordsBaby.Daddy.S02E01.HDTVRip.XviD-[DreamRecords].avi
Формат : AVI
Формат/Информация : Audio Video Interleave
Размер файла : 228 Мбайт
Продолжительность : 21 м.
Общий поток : 1496 Кбит/сек
Программа кодирования : VirtualDubModRus 1.5.10.2 (build 2542/release)
Библиотека кодирования : VirtualDubMod build 2542/release

Видео
Идентификатор : 0
Формат : MPEG-4 Visual
Профиль формата : Advanced Simple@L5
Параметр BVOP формата : 1
Параметр QPel формата : Нет
Параметр GMC формата : Без точки перехода
Параметр матрицы формата : Default (MPEG)
Идентификатор кодека : XVID
Идентификатор кодека/Подсказка : XviD
Продолжительность : 21 м.
Битрейт : 1295 Кбит/сек
Ширина : 720 пикселей
Высота : 400 пикселей
Соотношение сторон : 16:9
Частота кадров : 23,976 кадра/сек
Цветовое пространство : YUV
Субдискретизация насыщенности : 4:2:0
Битовая глубина : 8 бит
Тип развёртки : Прогрессивная
Метод сжатия : С потерями
Бит/(Пиксели*Кадры) : 0.188
Размер потока : 197 Мбайт (87%)
Библиотека кодирования : XviD 64

Аудио
Идентификатор : 1
Формат : MPEG Audio
Версия формата : Version 1
Профиль формата : Layer 3
Идентификатор кодека : 55
Идентификатор кодека/Подсказка : MP3
Продолжительность : 21 м.
Вид битрейта : Постоянный
Битрейт : 192 Кбит/сек
Каналы : 2 канала
Частота : 48,0 КГц
Метод сжатия : С потерями
Размер потока : 29,2 Мбайт (13%)
Выравнивание : Соединение по промежуткам
Продолжительность промежутка : 42 мс. (1,00 видеокадр)
Время предзагрузки промежутка : 504 мс.



   Похожие торренты   Торрент   Размер 
В этой теме нет новых непрочитанных сообщений. Папочка / Baby Daddy [02x01] (2013) HDTVRip 720p | P

3 | 2

891.97 МБ

В этой теме нет новых непрочитанных сообщений. Папочка / Baby Daddy [S01] (2012) HDTVRip | L1

5 | 4

1.94 ГБ

В этой теме нет новых непрочитанных сообщений. Папочка / Baby Daddy [01х01-08] (2012) HDTVRip-AVC | Sub

0 | 8

1.43 ГБ

В этой теме нет новых непрочитанных сообщений. Папочка / Baby Daddy [01х01] (2012) HDTVRip | L | MySkeych

0 | 2

259.12 МБ

В этой теме нет новых непрочитанных сообщений. Папочка / Baby Daddy [S01] (2012) WEB-DLRip | Fox Life

20 | 5

2.44 ГБ

В этой теме нет новых непрочитанных сообщений. Папочка / Baby Daddy [S03] (2014) WEB-DLRip

48 | 21

5.11 ГБ

В этой теме нет новых непрочитанных сообщений. Папочка / Baby Daddy [S02] (2013) WEB-DLRip | FOX Life

23 | 10

3.9 ГБ




Вы не можете начинать темы
Вы не можете отвечать на сообщения
Вы не можете редактировать свои сообщения
Вы не можете удалять свои сообщения
Вы не можете добавлять вложения

Перейти:  
Для Мосгорсуда, Роскомнадзора и рекламодателей: mosgorsud-torrent[собачка]yandex.ru
 Вход
ppkBB3cker v.2 © 2008-2014 @ PPK
[ Time : 0.028s | 14 Queries | GZIP : Off ]

Торрент трекер RUTOR.IN, Не можете зайти на rutor.org? Какой новый адрес рутор? Какое зеркало рутор? Не работает rutor.org и зеркала? Тогда наш торрент специально для вас. Rutor.in неофициальное зеркало rutor. В случае если у Вас заблокирован rutor или вдруг Вы не можете на него зайти, то Вы без труда сможете скачать бесплатно и без рекламы последние новинки кино, игр, сериалов и прочего у нас, на Rutor.in. Не нужно использовать прокси, чтобы зайти на рутор, достаточно воспользоваться нашим ресурсом. Все новые фильмы, игры, сериалы, книги и музыка за 2013 и 2014 годы через торрент бесплатно. Скачивайте фильмы в хорошем качестве, игры для пк, xbox, playstation без регистрации. У нас вы найдете новые Зарубежные сериалы и Русские сериалы 2013, 2014, 2015 годов. Оставайтесь с нами, качайте любимые фильмы, игры, сериалы, книги и музыку.