img image001 image001 image001 image001 image001 image001 image001 image001 image001 image001 image001 image001 image001 image001 image001

Planets Sun Sun Sun
Статистика раздачи
Автор: PriZraK | Размер: 16.41 ГБ | Добавлен: 15 фев 2014
Раздают: 1    Качают: 3
Скачать торрент
Скачать торрент
Описание торрента

СообщениеДобавлено: 15 фев 2014 



Страна: Россия
Производство: Кинокомпания DiXI TV
Жанр: Детектив
Год выпуска: 2012

Продолжительность: 12 х ~ 01:30:00

Язык: Русский

Режиссер: Юрий Попович
В ролях: Елена Морозова, Дмитрий Щербина, Анатолий Гущин, Денис Бондарков, Галина Коньшина, Ангелина Коршунова, Оксана Семёнова, Андрей Лебедев, Николай Дроздовский, Эдуард Рябинин, Венчислав Хотяновский, Анатолий Отраднов, Александр Печенин, Антон Ушаков, Юлия Кокрятская, Евгений Сафронов, Максим Щёголев, Елена Кукушкина



Описание: Прообразами трех главных героев стали три следователя Главного Следственного Управления Следственного Комитета РФ. Все они - люди высоких званий и действительно гении своего дела. Все дела, используемые в сериале - реальные, по которым найдены и осуждены виновные.

Исходник: DVD9 R5

Тип релиза: DVDRip

Контейнер: AVI
Видео: 704x384 (1.83:1), 23.976 fps, XviD ~1942 kbps avg, 0.30 bit/pixel
Аудио: 48 kHz, AC3 Dolby Digital, 2.0 ~192.00 kbps avg
Общее
Полное имя : D:1АААСК1 серия.avi
Формат : AVI
Формат/Информация : Audio Video Interleave
Размер файла : 1,37 Гбайт
Продолжительность : 1 ч. 31 м.
Общий поток : 2144 Кбит/сек
Программа кодирования : VirtualDubMod 1.5.10.3 | www.virtualdub-fr.org || (build 2550/release)
Библиотека кодирования : VirtualDubMod build 2550/release

Видео
Идентификатор : 0
Формат : MPEG-4 Visual
Профиль формата : Advanced Simple@L5
Параметр BVOP формата : 2
Параметр QPel формата : Нет
Параметр GMC формата : Без точки перехода
Параметр матрицы формата : Default (MPEG)
Режим смешивания : Сжатый битовый поток
Идентификатор кодека : XVID
Идентификатор кодека/Подсказка : XviD
Продолжительность : 1 ч. 31 м.
Битрейт : 1943 Кбит/сек
Ширина : 704 пикселя
Высота : 384 пикселя
Соотношение сторон : 1,85:1
Частота кадров : 23,976 кадра/сек
Цветовое пространство : YUV
Субдискретизация насыщенности : 4:2:0
Битовая глубина : 8 бит
Тип развёртки : Прогрессивная
Метод сжатия : С потерями
Бит/(Пиксели*Кадры) : 0.300
Размер потока : 1,24 Гбайт (91%)
Библиотека кодирования : XviD 1.2.1 (UTC 2008-12-04)

Аудио
Идентификатор : 1
Формат : AC-3
Формат/Информация : Audio Coding 3
Расширение режима : CM (complete main)
Параметр Endianness формата : Big
Идентификатор кодека : 2000
Продолжительность : 1 ч. 31 м.
Вид битрейта : Постоянный
Битрейт : 192 Кбит/сек
Каналы : 2 канала
Расположение каналов : Front: L R
Частота : 48,0 КГц
Битовая глубина : 16 бит
Метод сжатия : С потерями
Размер потока : 125 Мбайт (9%)
Выравнивание : Разделение по промежуткам
Продолжительность промежутка : 42 мс. (1,00 видеокадр)
Время предзагрузки промежутка : 500 мс.





Релиз группа:

Автор рипа:



   Похожие торренты   Торрент   Размер 
В этой теме нет новых непрочитанных сообщений. Следственный комитет [01-24 из 24] (2012) DVB

6 | 17

40.92 ГБ

В этой теме нет новых непрочитанных сообщений. Следственный комитет [01-12] (2012) SATRip от Getty

127 | 18

10.97 ГБ

В этой теме нет новых непрочитанных сообщений. Колеман Джон - Комитет 300. Тайны мирового правительства [Аудиокнига] (2012) MP3

111 | 11

932.56 МБ

В этой теме нет новых непрочитанных сообщений. Колеман Джон - Комитет 300. Тайны мирового правительства [Аудиокнига] (2012) MP3

83 | 6

122.57 МБ

В этой теме нет новых непрочитанных сообщений. Следственный эксперимент [01-10] (2013) SATRip от Generalfilm

96 | 52

3.17 ГБ

В этой теме нет новых непрочитанных сообщений. Гибель Курска. Следственный эксперимент (2015) SATRip от torrentfilm

1654 | 819

498.67 МБ

В этой теме нет новых непрочитанных сообщений. Комитет 19-ти (1971) TVRip

124 | 11

2.12 ГБ




Вы не можете начинать темы
Вы не можете отвечать на сообщения
Вы не можете редактировать свои сообщения
Вы не можете удалять свои сообщения
Вы не можете добавлять вложения

Перейти:  
Для Мосгорсуда, Роскомнадзора и рекламодателей: mosgorsud-torrent[собачка]yandex.ru
 Вход
ppkBB3cker v.2 © 2008-2014 @ PPK
[ Time : 0.051s | 14 Queries | GZIP : Off ]

Торрент трекер RUTOR.IN, Не можете зайти на rutor.org? Какой новый адрес рутор? Какое зеркало рутор? Не работает rutor.org и зеркала? Тогда наш торрент специально для вас. Rutor.in неофициальное зеркало rutor. В случае если у Вас заблокирован rutor или вдруг Вы не можете на него зайти, то Вы без труда сможете скачать бесплатно и без рекламы последние новинки кино, игр, сериалов и прочего у нас, на Rutor.in. Не нужно использовать прокси, чтобы зайти на рутор, достаточно воспользоваться нашим ресурсом. Все новые фильмы, игры, сериалы, книги и музыка за 2013 и 2014 годы через торрент бесплатно. Скачивайте фильмы в хорошем качестве, игры для пк, xbox, playstation без регистрации. У нас вы найдете новые Зарубежные сериалы и Русские сериалы 2013, 2014, 2015 годов. Оставайтесь с нами, качайте любимые фильмы, игры, сериалы, книги и музыку.