img image001 image001 image001 image001 image001 image001 image001 image001 image001 image001 image001 image001 image001 image001 image001

Planets Sun Sun Sun
Статистика раздачи
Автор: PriZraK | Размер: 3.92 ГБ | Добавлен: 15 фев 2014
Раздают: 54    Качают: 33
Скачать торрент
Скачать торрент
Описание торрента

СообщениеДобавлено: 15 фев 2014 



Страна: Россия
Производство: "KoBura Film"
Жанр: Боевик, мелодрама
Год выпуска: 2012

Продолжительность: 8 x ~ 00:44:00
Язык: Руский
Режиссер: Богдан Дробязко
В ролях: Александр Носик, Екатерина Вуличенко, Елена Захарова, Ян Цапник, Сергей Баталов, Олег Комаров, Ксения Буравская, Сергей Дорогов, Владимир Носик, Леонид Громов, Дмитрий Калистратов, Александр Кузнецов, Андрей Фиронов, Алексей Симонов (II), Анастасия Дубровина, Лилия Разакова, Виктория Куликова


Описание: Майор-штабист Ковальский, зять столичного генерала, волею случая и своего лучшего друга и сослуживца Остроумова попадает из столицы в глухомань: пограничную заставу на российско-финской границе. Там чистенькому столичному штабисту приходится нелегко. Но он сумеет доказать всем, что он достоин звания российского солдата.

Исходник: DVD9 R5

Тип релиза: DVDRip

Контейнер: AVI
Видео: 720x400 (1.80:1), 23.976 fps, XviD ~1390 kbps avg, 0.20 bit/pixel
Аудио: 48 kHz, AC3 2.0 ~192.00 kbps avg
Общее
Полное имя : D:1АААБерега1 серия.avi
Формат : AVI
Формат/Информация : Audio Video Interleave
Размер файла : 502 Мбайт
Продолжительность : 44 м.
Общий поток : 1592 Кбит/сек
Программа кодирования : VirtualDubMod 1.5.10.3 | www.virtualdub-fr.org || (build 2550/release)
Библиотека кодирования : VirtualDubMod build 2550/release

Видео
Идентификатор : 0
Формат : MPEG-4 Visual
Профиль формата : Advanced Simple@L5
Параметр BVOP формата : 2
Параметр QPel формата : Нет
Параметр GMC формата : Без точки перехода
Параметр матрицы формата : Default (MPEG)
Режим смешивания : Сжатый битовый поток
Идентификатор кодека : XVID
Идентификатор кодека/Подсказка : XviD
Продолжительность : 44 м.
Битрейт : 1391 Кбит/сек
Ширина : 720 пикселей
Высота : 400 пикселей
Соотношение сторон : 16:9
Частота кадров : 23,976 кадра/сек
Цветовое пространство : YUV
Субдискретизация насыщенности : 4:2:0
Битовая глубина : 8 бит
Тип развёртки : Прогрессивная
Метод сжатия : С потерями
Бит/(Пиксели*Кадры) : 0.201
Размер потока : 438 Мбайт (87%)
Библиотека кодирования : XviD 1.2.1 (UTC 2008-12-04)

Аудио
Идентификатор : 1
Формат : AC-3
Формат/Информация : Audio Coding 3
Расширение режима : CM (complete main)
Параметр Endianness формата : Big
Идентификатор кодека : 2000
Продолжительность : 44 м.
Вид битрейта : Постоянный
Битрейт : 192 Кбит/сек
Каналы : 2 канала
Расположение каналов : Front: L R
Частота : 48,0 КГц
Битовая глубина : 16 бит
Метод сжатия : С потерями
Размер потока : 60,5 Мбайт (12%)
Выравнивание : Разделение по промежуткам
Продолжительность промежутка : 42 мс. (1,00 видеокадр)
Время предзагрузки промежутка : 500 мс.





Релиз группа:

Автор рипа:



   Похожие торренты   Торрент   Размер 
В этой теме нет новых непрочитанных сообщений. Берега [01-08 из 08] (2012) HDTVRip

32 | 7

4.3 ГБ

В этой теме нет новых непрочитанных сообщений. Берега [01-08 из 08] (2012) IPTVRip-AVC

4 | 6

4.36 ГБ

В этой теме нет новых непрочитанных сообщений. Берега изобилия (2012) PC

270 | 3

139.26 МБ

В этой теме нет новых непрочитанных сообщений. Берега [01-08 из 08] (2012) HDTVRip 720p

0 | 4

9.82 ГБ

В этой теме нет новых непрочитанных сообщений. Берега [01-08 из 08] (2012) SATRip от Files-x

46 | 7

4.3 ГБ

В этой теме нет новых непрочитанных сообщений. Берега [01-08 из 08] (2012) HDTV 1080i

2 | 3

20.56 ГБ

В этой теме нет новых непрочитанных сообщений. Берега (1977) DVDRip

30 | 3

4.09 ГБ




Вы не можете начинать темы
Вы не можете отвечать на сообщения
Вы не можете редактировать свои сообщения
Вы не можете удалять свои сообщения
Вы не можете добавлять вложения

Перейти:  
Для Мосгорсуда, Роскомнадзора и рекламодателей: mosgorsud-torrent[собачка]yandex.ru
 Вход
ppkBB3cker v.2 © 2008-2014 @ PPK
[ Time : 0.036s | 14 Queries | GZIP : Off ]

Торрент трекер RUTOR.IN, Не можете зайти на rutor.org? Какой новый адрес рутор? Какое зеркало рутор? Не работает rutor.org и зеркала? Тогда наш торрент специально для вас. Rutor.in неофициальное зеркало rutor. В случае если у Вас заблокирован rutor или вдруг Вы не можете на него зайти, то Вы без труда сможете скачать бесплатно и без рекламы последние новинки кино, игр, сериалов и прочего у нас, на Rutor.in. Не нужно использовать прокси, чтобы зайти на рутор, достаточно воспользоваться нашим ресурсом. Все новые фильмы, игры, сериалы, книги и музыка за 2013 и 2014 годы через торрент бесплатно. Скачивайте фильмы в хорошем качестве, игры для пк, xbox, playstation без регистрации. У нас вы найдете новые Зарубежные сериалы и Русские сериалы 2013, 2014, 2015 годов. Оставайтесь с нами, качайте любимые фильмы, игры, сериалы, книги и музыку.