img image001 image001 image001 image001 image001 image001 image001 image001 image001 image001 image001 image001 image001 image001 image001

Planets Sun Sun Sun
Статистика раздачи
Автор: PriZraK | Размер: 23.63 ГБ | Добавлен: 15 фев 2014
Раздают: 2    Качают: 2
Скачать торрент
Скачать торрент
Описание торрента

СообщениеДобавлено: 15 фев 2014 




Информация о фильме
Название: Тайные Связи
Оригинальное название: Covert Affairs
Год выпуска: 2013
Жанр: Драма, детектив
Режиссер: Мэтт Корман, Крис Орд
В ролях: Пайпер Перабо, Кристофер Горэм, Кэри Мэтчетт, Питер Галлахер

О фильме: На новой работе всегда нелегко – особенно, если тебе предстоит работать в ЦРУ. Энни Уолкер (Пайпер Перабо) бегло говорит на шести языках, объездила весь мир и является самой лучшей ученицей в школе агентов ЦРУ. Но это все-равно не дает никакого объяснения, почему за месяц до окончания обучения, ее внезапно приглашают в главный офис ЦРУ и предлагают работу агента. Также для нее остается неизвестным, что в ее прошлом есть что-то или кто-то, очень интересующий ее боссов. Эгги Андерсон (Кристофер Горхем), техэксперт, потерявший зрение на одном из заданий, становится для Энни проводником и верным помощником в огромном мире интриг, опасности и бюрократии.



Страна: США
Студия: Universal Cable Productions
Продолжительность: 16 x ~ 00:42:00
Озвучивание: Любительское многоголосое (Albion Studio & Ascolta & SledgeH)



Файл
Кодек: MPEG-4 AVC
Качество: WEB-DL 720p
Видео: ~ 4005 Кбит/с, 1280x720, 23.976 кадр/с
Аудио #1: Русский (AC3, 6 ch, 448 Кбит/с) / Любительский многоголосый (Albion Studio)
Аудио #2: Английский (AC3, 6 ch, 384 Кбит/с)
Субтитры: Русские, английские, русские форсированные

Семпл

Перевод: Notabenoid (Desire2107, Armavir, MayaD и др.)
Озвучание: Мария "Ascolta" Артемова, Юлия Сорокина, Наталья Гришина, Эльвира Высоцкая, Алексей "SledgeH" Леонов, Михаил Бигыч, Юрий Ковалёв, Сергей Гришин, Михаил Гапонов, Елена ВерСия.
Монтаж и сведение звука: Михаил Бигыч

General
Complete name : E:Раздачи от Albion-StudioCovert Affairs 4 season WEB-DL 720p MVO Albion StudioCovert Affairs s04e09 WEB-DL 720p MVO Albion Studio.mkv
Format : Matroska
Format version : Version 4 / Version 2
File size : 1.48 GiB
Duration : 41mn 52s
Overall bit rate : 5 064 Kbps
Encoded date : UTC 2013-09-15 19:19:09
Writing application : mkvmerge v6.1.0 ('Old Devil') built on Mar 2 2013 14:32:37
Writing library : libebml v1.3.0 + libmatroska v1.4.0

Video
ID : 1
Format : AVC
Format/Info : Advanced Video Codec
Format profile : High@L3.1
Format settings, CABAC : No
Format settings, ReFrames : 2 frames
Codec ID : V_MPEG4/ISO/AVC
Duration : 41mn 52s
Bit rate : 4 131 Kbps
Width : 1 280 pixels
Height : 720 pixels
Display aspect ratio : 16:9
Frame rate mode : Constant
Frame rate : 23.976 fps
Color space : YUV
Chroma subsampling : 4:2:0
Bit depth : 8 bits
Scan type : Progressive
Bits/(Pixel*Frame) : 0.187
Stream size : 1.21 GiB (82%)
Language : English
Default : Yes
Forced : No
Color primaries : BT.709
Transfer characteristics : BT.709
Matrix coefficients : BT.709

Audio #1
ID : 2
Format : AC-3
Format/Info : Audio Coding 3
Mode extension : CM (complete main)
Format settings, Endianness : Big
Codec ID : A_AC3
Duration : 41mn 52s
Bit rate mode : Constant
Bit rate : 448 Kbps
Channel(s) : 6 channels
Channel positions : Front: L C R, Side: L R, LFE
Sampling rate : 48.0 KHz
Bit depth : 16 bits
Compression mode : Lossy
Stream size : 134 MiB (9%)
Title : Rus MVO Albion Studio 5:1 ac3
Default : Yes
Forced : No

Audio #2
ID : 3
Format : AC-3
Format/Info : Audio Coding 3
Mode extension : CM (complete main)
Format settings, Endianness : Big
Codec ID : A_AC3
Duration : 41mn 52s
Bit rate mode : Constant
Bit rate : 384 Kbps
Channel(s) : 6 channels
Channel positions : Front: L C R, Side: L R, LFE
Sampling rate : 48.0 KHz
Bit depth : 16 bits
Compression mode : Lossy
Stream size : 115 MiB (8%)
Title : Eng 5:1 ac3
Default : No
Forced : No

Text #1
ID : 4
Format : UTF-8
Codec ID : S_TEXT/UTF8
Codec ID/Info : UTF-8 Plain Text
Title : Nadpisi
Language : Russian
Default : Yes
Forced : No

Text #2
ID : 5
Format : UTF-8
Codec ID : S_TEXT/UTF8
Codec ID/Info : UTF-8 Plain Text
Title : Notabenoid
Language : Russian
Default : No
Forced : No

Text #3
ID : 6
Format : UTF-8
Codec ID : S_TEXT/UTF8
Codec ID/Info : UTF-8 Plain Text
Title : CC
Language : English
Default : No
Forced : No




   Похожие торренты   Торрент   Размер 
В этой теме нет новых непрочитанных сообщений. Тайные связи / Covert Affairs [04x01-12 из 16] (2013) WEB-DLRip | Fox Life

0 | 1

5.85 ГБ

В этой теме нет новых непрочитанных сообщений. Тайные связи / Covert Affairs [S04] (2013) WEB-DLRip, HDTVRip | Fox Life

0 | 1

7.8 ГБ

В этой теме нет новых непрочитанных сообщений. Тайные связи / Covert Affairs [S01-04] (2010-2013) WEB-DLRip | Fox Life

8 | 1

28.99 ГБ

В этой теме нет новых непрочитанных сообщений. Тайные связи / Covert Affairs [S01] (2010) WEB-DLRip от Fox Life

24 | 8

5.56 ГБ

В этой теме нет новых непрочитанных сообщений. Тайные связи / Covert Affairs [S02] (2011) WEB-DLRip | Fox Life

11 | 14

7.81 ГБ

В этой теме нет новых непрочитанных сообщений. Тайные связи / Covert Affairs [S03] (2012) WEB-DLRip | Fox Life

9 | 6

7.81 ГБ

В этой теме нет новых непрочитанных сообщений. Тайные связи / Covert Affairs [S01] (2010) WEB-DLRip от FilmGate

2 | 3

4.99 ГБ




Вы не можете начинать темы
Вы не можете отвечать на сообщения
Вы не можете редактировать свои сообщения
Вы не можете удалять свои сообщения
Вы не можете добавлять вложения

Перейти:  
Для Мосгорсуда, Роскомнадзора и рекламодателей: mosgorsud-torrent[собачка]yandex.ru
 Вход
ppkBB3cker v.2 © 2008-2014 @ PPK
[ Time : 0.045s | 15 Queries | GZIP : On ]

Торрент трекер RUTOR.IN, Не можете зайти на rutor.org? Какой новый адрес рутор? Какое зеркало рутор? Не работает rutor.org и зеркала? Тогда наш торрент специально для вас. Rutor.in неофициальное зеркало rutor. В случае если у Вас заблокирован rutor или вдруг Вы не можете на него зайти, то Вы без труда сможете скачать бесплатно и без рекламы последние новинки кино, игр, сериалов и прочего у нас, на Rutor.in. Не нужно использовать прокси, чтобы зайти на рутор, достаточно воспользоваться нашим ресурсом. Все новые фильмы, игры, сериалы, книги и музыка за 2013 и 2014 годы через торрент бесплатно. Скачивайте фильмы в хорошем качестве, игры для пк, xbox, playstation без регистрации. У нас вы найдете новые Зарубежные сериалы и Русские сериалы 2013, 2014, 2015 годов. Оставайтесь с нами, качайте любимые фильмы, игры, сериалы, книги и музыку.