img image001 image001 image001 image001 image001 image001 image001 image001 image001 image001 image001 image001 image001 image001 image001

Planets Sun Sun Sun
Статистика раздачи
Автор: PriZraK | Размер: 16.49 ГБ | Добавлен: 15 фев 2014
Раздают: 35    Качают: 74
Скачать торрент
Скачать торрент
Описание торрента

СообщениеДобавлено: 15 фев 2014 




Год выпуска: 2011 - 2012
Страна: Россия
Жанр: Комедийные, Романтические
Продолжительность: ~ 50 мин. серия
Кол-во серий/сезонов: 48/2
Перевод: Оригинал (Русский)


В ролях: Яна Крайнова, Илья Любимов, Павел Трубинер, Елена Сафонова, Александр Феклистов, Алика Смехова, Алёна Яковлева, Максим Радугин
Режиссёр: Валерия Ивановская, Александр Герцвольф, Сергей Кобзев


Описание: «Дневник доктора Зайцевой» – романтический комедийный сериал о поисках любви и буднях врачей, построенный на записях из дневника главной героини. Понаблюдать за непростой жизнью простых российских врачей можно онлайн.
Александра Зайцева – перспективный хирург. А еще она невероятно милая, обаятельная и добрая девушка с разбившимися мечтами о благополучной личной жизни, задавшаяся целью похудеть и найти настоящую любовь. Правда, Сашин алгоритм действий по достижению этих целей не совсем логичен, что придает сюжету особый «женский» шарм. Преданная женихом, бросившая перспективную работу в пластической хирургии Саша устраивается на работу в клинику к своему отцу. Там она встречает свою школьную любовь, плейбоя и хирурга Максима, а также неисправимого романтика, гинеколога Павла. Этот любовный треугольник и стоит в центре повествования. Но помимо него здесь есть и путаница в отношениях, и подвиги за хирургическим столом, и непростые взаимоотношения родителей героини, а так же рекордное количество юмора и шоколада.


Качество: WEB-DL
Формат: MPEG4
Видео кодек: AVC
Аудио кодек: AAC
Видео: MPEG4 Video (H264), 704x396, 25fps, 892kbps
Аудио: AAC, 44100Hz, stereo, 127kbps





Format : MPEG-4
Format profile : Base Media
Codec ID : isom
File size : 353 MiB
Duration : 48mn 6s
Overall bit rate : 1 025 Kbps
Encoded date : UTC 2012-01-16 12:05:29
Tagged date : UTC 2012-01-16 12:05:29

Video
ID : 1
Format : AVC
Format/Info : Advanced Video Codec
Format profile : Main@L3.0
Format settings, CABAC : Yes
Format settings, ReFrames : 4 frames
Codec ID : avc1
Codec ID/Info : Advanced Video Coding
Duration : 48mn 6s
Bit rate : 893 Kbps
Width : 704 pixels
Height : 396 pixels
Display aspect ratio : 16:9
Frame rate mode : Constant
Frame rate : 25.000 fps
Color space : YUV
Chroma subsampling : 4:2:0
Bit depth : 8 bits
Scan type : Progressive
Bits/(Pixel*Frame) : 0.128
Stream size : 307 MiB (87%)
Language : Russian
Encoded date : UTC 2012-01-16 12:05:29
Tagged date : UTC 2012-08-05 20:33:26

Audio
ID : 2
Format : AAC
Format/Info : Advanced Audio Codec
Format profile : LC
Codec ID : 40
Duration : 48mn 6s
Source duration : 48mn 6s
Bit rate mode : Constant
Bit rate : 128 Kbps
Channel count : 2 channels
Channel positions : Front: L R
Sampling rate : 44.1 KHz
Compression mode : Lossy
Stream size : 44.0 MiB (12%)
Source stream size : 44.0 MiB (12%)
Language : Russian


1 сезон 1 серия — А что, если без мужчин
1 сезон 2 серия — Может, он где‐то рядом…
1 сезон 3 серия — Женщины много не бывает...
1 сезон 4 серия — Чего хочет Макс
1 сезон 5 серия — Ой, кажется, я запуталась...
1 сезон 6 серия — С кем же пойти
1 сезон 7 серия — Что такое «не везет»
1 сезон 8 серия — Я в гостях у сказки
1 сезон 9 серия — С небес на землю
1 сезон 10 серия — Макс все еще не мой
1 сезон 11 серия — Не люблю нечестную игру
1 сезон 12 серия — Кому‐то вспомнить, мне бы забыть
1 сезон 13 серия — Назло рекордам
1 сезон 14 серия — Как украсть миллионера
1 сезон 15 серия — Однажды в Вегасе
1 сезон 16 серия — Роман с кольцом
1 сезон 17 серия — Есть ли жизнь после свадьбы
1 сезон 18 серия — Я всех спасу… Но кто спасет меня
1 сезон 19 серия — Я замужем. И точка.
1 сезон 20 серия — Недолго музыка играла...
1 сезон 21 серия — Меня спас Макс…
1 сезон 22 серия — Победит сильнейшая
1 сезон 23 серия — Мне пора повзрослеть ...
1 сезон 24 серия — Скоро ветер переменится


2 сезон 1 серия — Мечты сбываются
2 сезон 2 серия — Все мужики‐ко...
2 сезон 3 серия — Не спать на работе
2 сезон 4 серия — Вспомнить всё смотреть
2 сезон 5 серия — Не мой, зато свободный
2 сезон 6 серия — Вопрос жизни и смерти
2 сезон 7 серия — Папа, мама, я и другие недорозумения
2 сезон 8 серия — Мистер Кавми и миссис Смит
2 сезон 9 серия — Женимся‐ или слабо
2 сезон 10 серия — В будущее‐ни ногой!
2 сезон 11 серия — Знакомство с родитель...
2 сезон 12 серия — Ищу мужа!
2 сезон 13 серия — Я буду рядом
2 сезон 14 серия — Игры без разума
2 сезон 15 серия — Хочу быть мамой
2 сезон 16 серия — Буду счастлива всем назло!
2 сезон 17 серия — Мы выбираем, нас выбирают
2 сезон 18 серия — Все плохие‐ Я не лучше
2 сезон 19 серия — Хуже не бывает
2 сезон 20 серия — О любит меня. ПОМОГИТЕ
2 сезон 21 серия — В любви почти все средства хороши
2 сезон 22 серия — Человек человеку врач.
2 сезон 23 серия — Сказать нельзя смолчать!
2 сезон 24 серия — И где мое невезение


Скриншоты
















   Похожие торренты   Торрент   Размер 
В этой теме нет новых непрочитанных сообщений. Дневник доктора Зайцевой [15] (2012) SATRemux от SilverCinema

1 | 2

1.3 ГБ

В этой теме нет новых непрочитанных сообщений. Дневник доктора Зайцевой [12] (2012) SATRemux от SilverCinema

1 | 2

674.82 МБ

В этой теме нет новых непрочитанных сообщений. Дневник доктора Зайцевой [07] (2012) SATRemux от SilverCinema

1 | 2

715.87 МБ

В этой теме нет новых непрочитанных сообщений. Дневник доктора Зайцевой [05] (2012) SATRemux от SilverCinema

1 | 2

641.67 МБ

В этой теме нет новых непрочитанных сообщений. Дневник доктора Зайцевой [03] (2012) SATRemux от SilverCinema

2 | 2

680.65 МБ

В этой теме нет новых непрочитанных сообщений. Дневник доктора Зайцевой [01] (2012) SATRemux от SilverCinema

2 | 5

670.14 МБ

В этой теме нет новых непрочитанных сообщений. Дневник доктора Зайцевой [04] (2012) SATRemux от SilverCinema

1 | 2

678 МБ




Вы не можете начинать темы
Вы не можете отвечать на сообщения
Вы не можете редактировать свои сообщения
Вы не можете удалять свои сообщения
Вы не можете добавлять вложения

Перейти:  
Для Мосгорсуда, Роскомнадзора и рекламодателей: mosgorsud-torrent[собачка]yandex.ru
 Вход
ppkBB3cker v.2 © 2008-2014 @ PPK
[ Time : 0.078s | 17 Queries | GZIP : Off ]
CGP output time : 0.042s | 5 Queries | GZIP : Off

Торрент трекер RUTOR.IN, Не можете зайти на rutor.org? Какой новый адрес рутор? Какое зеркало рутор? Не работает rutor.org и зеркала? Тогда наш торрент специально для вас. Rutor.in неофициальное зеркало rutor. В случае если у Вас заблокирован rutor или вдруг Вы не можете на него зайти, то Вы без труда сможете скачать бесплатно и без рекламы последние новинки кино, игр, сериалов и прочего у нас, на Rutor.in. Не нужно использовать прокси, чтобы зайти на рутор, достаточно воспользоваться нашим ресурсом. Все новые фильмы, игры, сериалы, книги и музыка за 2013 и 2014 годы через торрент бесплатно. Скачивайте фильмы в хорошем качестве, игры для пк, xbox, playstation без регистрации. У нас вы найдете новые Зарубежные сериалы и Русские сериалы 2013, 2014, 2015 годов. Оставайтесь с нами, качайте любимые фильмы, игры, сериалы, книги и музыку.