img image001 image001 image001 image001 image001 image001 image001 image001 image001 image001 image001 image001 image001 image001 image001

Planets Sun Sun Sun
Статистика раздачи
Автор: PriZraK | Размер: 4.74 ГБ | Добавлен: 15 фев 2014
Раздают: 64    Качают: 15
Скачать торрент
Скачать торрент
Описание торрента

СообщениеДобавлено: 15 фев 2014 




Страна: Украина / Star Media
Жанр: боевик, история, драма
Год выпуска: 2013
Продолжительность: 8 серий ~ 44 мин.

Перевод: не требуется
Cубтитры: нет
Оригинальная аудиодорожка: русский

Режиссер: Олег Фесенко

В ролях: Алексей Бардуков, Ольга Арнтгольц, Ольга Сутулова, Андрей Панин, Анатолий Кот, Олег Карпенко, Ирина Крутик, Антон Соколов, Александр Денисенко, Андрей Дебрин...

Описание: 1941 год. Жизнь студента физмеха Ленинградского индустриального института круто развернулась за один день, перед самой весенней сессией. Иван Гучков «попал на карандаш» майору Лобанову — начальнику отдела Разведывательного управления Ленинградского военного округа. Несколько месяцев спустя в советское ГРУ поступают сведения, что в США полным ходом идет секретная разработка мощнейшего атомного боеприпаса.
Советская разведка принимает решение завербовать Ивана в Неваду на объект «Х» — завод по производству обогащенного урана. Чтобы кандидатура Гучкова не вызывала подозрений, ему меняют не только имя и внешность, но и биографию. Иван перевоплощается в пропавшего без вести курсанта-морпеха Стенли Либера и теперь, будучи объявлен выжившим, он должен жениться на невесте Либера Шейле. Девушка самоотверженно делит с Иваном все его невзгоды и даже решает отправиться с ним в Неваду. Постепенно Иван забывает о собственной невесте Лике, оставшейся в Советском Союзе, да и неизвестно выжила ли она в блокадном Ленинграде.
Но жизнь разведчика непредсказуема: Шейлу, а затем Ивана арестовывают и депортируют в Советский Союз. Там Гучкову придется пройти все круги ада, прежде чем приступить к поискам тех, кто ему дорог и того, что ему нужно.



Качество: DVDRip (DVD9 R5)
Формат: AVI

Видео: 720x400 (16:9), 25.000 fps, XViD ~ 1800 kbps avg, 0.250 bit/pixel
Аудио: 48 kHz, АС3 2 ch, 128 kbps, русский

Раздача от:
Общее
Полное имя : Bomba.2013.O.DVDRip_[New-Team]_by_avproh1.avi
Формат : AVI
Формат/Информация : Audio Video Interleave
Размер файла : 615 Мбайт
Продолжительность : 44 м.
Общий поток : 1938 Кбит/сек
Программа кодирования : VirtualDubMod 1.5.10.3 | www.virtualdub-fr.org || (build 2550/release)
Библиотека кодирования : VirtualDubMod build 2550/release

Видео
Идентификатор : 0
Формат : MPEG-4 Visual
Профиль формата : Advanced Simple@L5
Параметр BVOP формата : 1
Параметр QPel формата : Нет
Параметр GMC формата : Без точки перехода
Параметр матрицы формата : Выборочная
Идентификатор кодека : XVID
Идентификатор кодека/Подсказка : XviD
Продолжительность : 44 м.
Битрейт : 1801 Кбит/сек
Ширина : 720 пикселей
Высота : 400 пикселей
Соотношение сторон : 16:9
Частота кадров : 25,000 кадров/сек
Цветовое пространство : YUV
Субдискретизация насыщенности : 4:2:0
Битовая глубина : 8 бит
Тип развёртки : Прогрессивная
Метод сжатия : С потерями
Бит/(Пиксели*Кадры) : 0.250
Размер потока : 571 Мбайт (93%)
Библиотека кодирования : XviD 73

Аудио
Идентификатор : 1
Формат : AC-3
Формат/Информация : Audio Coding 3
Расширение режима : CM (complete main)
Параметр Endianness формата : Big
Идентификатор кодека : 2000
Продолжительность : 44 м.
Вид битрейта : Постоянный
Битрейт : 128 Кбит/сек
Каналы : 2 канала
Расположение каналов : Front: L R
Частота : 48,0 КГц
Битовая глубина : 16 бит
Метод сжатия : С потерями
Размер потока : 40,6 Мбайт (7%)
Выравнивание : Разделение по промежуткам
Продолжительность промежутка : 40 мс. (1,00 видеокадр)
Время предзагрузки промежутка : 500 мс.






   Похожие торренты   Торрент   Размер 
В этой теме нет новых непрочитанных сообщений. Бомба [01-08 из 08] (2013) DVDRip-AVC от New-Team | лицензия

23 | 7

4.73 ГБ

В этой теме нет новых непрочитанных сообщений. Бомба [01-08 из 08] (2013) DVD9 R5 от New-Team | лицензия

13 | 5

7.89 ГБ

В этой теме нет новых непрочитанных сообщений. Раздевающая бомба / Обнаженная Бомба / The Nude Bomb (1980) DVDRip от Youtracker | P

6 | 12

1.43 ГБ

В этой теме нет новых непрочитанных сообщений. Раздевающая бомба / Обнаженная Бомба / The Nude Bomb (1980) DVD9 от Youtracker | P

20 | 1

5.39 ГБ

В этой теме нет новых непрочитанных сообщений. Бомба [01-08 из 08] (2013) DVDRip от MediaClub | КПК

40 | 35

1.54 ГБ

В этой теме нет новых непрочитанных сообщений. Дед 005 (2013) DVDRip-AVC от New-Team | Лицензия

224 | 9

1.46 ГБ

В этой теме нет новых непрочитанных сообщений. Дед 005 (2013) DVDRip-AVC от New-Team | Лицензия

75 | 7

743.11 МБ




Вы не можете начинать темы
Вы не можете отвечать на сообщения
Вы не можете редактировать свои сообщения
Вы не можете удалять свои сообщения
Вы не можете добавлять вложения

Перейти:  
Для Мосгорсуда, Роскомнадзора и рекламодателей: mosgorsud-torrent[собачка]yandex.ru
 Вход
ppkBB3cker v.2 © 2008-2014 @ PPK
[ Time : 0.547s | 15 Queries | GZIP : On ]

Торрент трекер RUTOR.IN, Не можете зайти на rutor.org? Какой новый адрес рутор? Какое зеркало рутор? Не работает rutor.org и зеркала? Тогда наш торрент специально для вас. Rutor.in неофициальное зеркало rutor. В случае если у Вас заблокирован rutor или вдруг Вы не можете на него зайти, то Вы без труда сможете скачать бесплатно и без рекламы последние новинки кино, игр, сериалов и прочего у нас, на Rutor.in. Не нужно использовать прокси, чтобы зайти на рутор, достаточно воспользоваться нашим ресурсом. Все новые фильмы, игры, сериалы, книги и музыка за 2013 и 2014 годы через торрент бесплатно. Скачивайте фильмы в хорошем качестве, игры для пк, xbox, playstation без регистрации. У нас вы найдете новые Зарубежные сериалы и Русские сериалы 2013, 2014, 2015 годов. Оставайтесь с нами, качайте любимые фильмы, игры, сериалы, книги и музыку.