img image001 image001 image001 image001 image001 image001 image001 image001 image001 image001 image001 image001 image001 image001 image001

Planets Sun Sun Sun
Статистика раздачи
Автор: PriZraK | Размер: 20.62 ГБ | Добавлен: 15 фев 2014
Раздают: 28    Качают: 18
Скачать торрент
Скачать торрент
Описание торрента

СообщениеДобавлено: 15 фев 2014 




Год выпуска: 2013
Жанр: триллер, драма, детектив
Режиссер: Майкл Куэста | Michael Cuesta, Кларк Джонсон | Clark Johnson, Джеффри Начманофф | Jeffrey Nachmanoff
В ролях: Клэр Дэйнс, Дэмиэн Льюис, Мэнди Пэтинкин, Морена Баккарин, Дэвид Хэрвуд, Джексон Паке, Морган Сэйлор, Диего Клаттенхофф, Руперт Френд, Дэвид Марсиано и др.

Описание:
Шпионская драма продолжается. Суперинтересные первый и второй сезоны этого телешедевра уже позади, но нас ожидает новый виток сюжета. Сотрудницу ЦРУ Кэрри отправят в психлечебницу, и история сконцентрируется на семье офицера Броуди, в особенности, на его дочери, которая приняла ислам. Ну и конечно снова ожидаетсят много прослушки, перехватов, дезинформации и борьбы с терроризмом на благо Америки.



Страна: США | Cherry Pie Productions, Fox 21, Keshet Broadcasting, Showtime Networks Inc., Teakwood Lane Productions
Продолжительность серии: ~55 мин.
Перевод: Профессиональный (многоголосый, закадровый) (Пифагор)
Субтитры: Русские, Английские
Оригинальная аудиодорожка: английский

Качество: WEB-DL 720p
Формат: MKV
Видео: AVC, 1280x718 (16:9), 23.976 fps, 3 922 Kbps (0.178 bit/pixel)
Аудио #1: AC-3, 48.0 KHz, 6 ch, 384 Kbps, CBR (Russian)
Аудио #2: AC-3, 48.0 KHz, 6 ch, 384 Kbps, CBR (English)
Железный дровосек мёртв (Tin Man Is Down)
Ух... ох... ах... (Uh... Oh... Ah...)
Башня Давида (Tower of David)
Игра началась (Game On)
Приём с йогой (The Yoga Play)
Ещё в деле (Still Positive)
Стариканус (Gerontion)
Красная тачка (A Red Wheelbarrow)
Последний раз (One Last Time)
Спокойной ночи (Good Night)
Большой человек в Тегеране (Big Man in Tehran)
[*]Звезда (The Star)
Код:
General
Unique ID                                : 203786987365451854391140622658302850621 (0x994FF23534BA938C9000200B89FF363D)
Complete name                            : Homeland.S03.720p.WEB-DL.DD5.1.H.264-BS666Homeland.S03E01.Tin.Man.Is.Down.720p.WEB-DL.DD5.1.H.264-BS666.mkv
Format                                   : Matroska
Format version                           : Version 4 / Version 2
File size                                : 1.94 GiB
Duration                                 : 58mn 5s
Overall bit rate                         : 4 785 Kbps
Movie name                               : Homeland.S03E01.Tin.Man.Is.Down.720p.WEB-DL.DD5.1.H.264-BS666 (Casstudio.TV)
Encoded date                             : UTC 2013-09-30 23:01:51
Writing application                      : mkvmerge v6.4.1 ('Omega Point') built on Sep 16 2013 22:05:10
Writing library                          : libebml v1.3.0 + libmatroska v1.4.1

Video
ID                                       : 1
Format                                   : AVC
Format/Info                              : Advanced Video Codec
Format profile                           : High@L3.1
Format settings, CABAC                   : No
Format settings, ReFrames                : 2 frames
Codec ID                                 : V_MPEG4/ISO/AVC
Duration                                 : 58mn 5s
Bit rate                                 : 3 922 Kbps
Width                                    : 1 280 pixels
Height                                   : 718 pixels
Display aspect ratio                     : 16:9
Frame rate mode                          : Constant
Frame rate                               : 23.976 fps
Color space                              : YUV
Chroma subsampling                       : 4:2:0
Bit depth                                : 8 bits
Scan type                                : Progressive
Bits/(Pixel*Frame)                       : 0.178
Stream size                              : 1.59 GiB (82%)
Language                                 : English
Default                                  : Yes
Forced                                   : No
Color primaries                          : BT.709
Transfer characteristics                 : BT.709
Matrix coefficients                      : BT.709

Audio #1
ID                                       : 2
Format                                   : AC-3
Format/Info                              : Audio Coding 3
Mode extension                           : CM (complete main)
Format settings, Endianness              : Big
Codec ID                                 : A_AC3
Duration                                 : 58mn 5s
Bit rate mode                            : Constant
Bit rate                                 : 384 Kbps
Channel count                            : 6 channels
Channel positions                        : Front: L C R, Side: L R, LFE
Sampling rate                            : 48.0 KHz
Bit depth                                : 16 bits
Compression mode                         : Lossy
Stream size                              : 160 MiB (8%)
Language                                 : Russian
Default                                  : Yes
Forced                                   : No

Audio #2
ID                                       : 3
Format                                   : AC-3
Format/Info                              : Audio Coding 3
Mode extension                           : CM (complete main)
Format settings, Endianness              : Big
Codec ID                                 : A_AC3
Duration                                 : 58mn 5s
Bit rate mode                            : Constant
Bit rate                                 : 384 Kbps
Channel count                            : 6 channels
Channel positions                        : Front: L C R, Side: L R, LFE
Sampling rate                            : 48.0 KHz
Bit depth                                : 16 bits
Compression mode                         : Lossy
Stream size                              : 160 MiB (8%)
Language                                 : English
Default                                  : No
Forced                                   : No

Text #1
ID                                       : 4
Format                                   : UTF-8
Codec ID                                 : S_TEXT/UTF8
Codec ID/Info                            : UTF-8 Plain Text
Language                                 : Russian
Default                                  : No
Forced                                   : No

Text #2
ID                                       : 5
Format                                   : UTF-8
Codec ID                                 : S_TEXT/UTF8
Codec ID/Info                            : UTF-8 Plain Text
Language                                 : English
Default                                  : No
Forced                                   : No





   Похожие торренты   Торрент   Размер 
В этой теме нет новых непрочитанных сообщений. Родина / Чужой среди своих / Homeland [S03] (2013) WEB-DL 720p | LostFilm

315 | 30

20.77 ГБ

В этой теме нет новых непрочитанных сообщений. Родина / Чужой среди своих / Homeland [03x01-03 из 12] (2013) WEB-DL 720p | LostFilm

1 | 2

5.4 ГБ

В этой теме нет новых непрочитанных сообщений. Родина / Чужой среди своих / Homeland [03x01-11 из 12] (2013) WEB-DL 720p | LostFilm

0 | 2

18.75 ГБ

В этой теме нет новых непрочитанных сообщений. Родина / Чужой среди своих / Homeland [03x01] (2013) WEB-DL 720p | LostFilm

1 | 3

1.96 ГБ

В этой теме нет новых непрочитанных сообщений. Родина / Чужой среди своих / Homeland [S02-S03] (2012-2013) WEB-DLRip-AVC 720p l LostFilm

49 | 38

30.31 ГБ

В этой теме нет новых непрочитанных сообщений. Родина / Чужой среди своих / Homeland [02-03x01-22 из 25] (2012-2013) WEB-DLRip-AVC 720p l LostFilm

1 | 2

27.58 ГБ

В этой теме нет новых непрочитанных сообщений. Чужой среди своих / Родина / Homeland [S03] (2013) WEB-DLRip от RG BroDim | P

24 | 15

6.7 ГБ




Вы не можете начинать темы
Вы не можете отвечать на сообщения
Вы не можете редактировать свои сообщения
Вы не можете удалять свои сообщения
Вы не можете добавлять вложения

Перейти:  
Для Мосгорсуда, Роскомнадзора и рекламодателей: mosgorsud-torrent[собачка]yandex.ru
 Вход
ppkBB3cker v.2 © 2008-2014 @ PPK
[ Time : 0.057s | 15 Queries | GZIP : Off ]

cron