img image001 image001 image001 image001 image001 image001 image001 image001 image001 image001 image001 image001 image001 image001 image001

Planets Sun Sun Sun
Статистика раздачи
Автор: PriZraK | Размер: 17.34 ГБ | Добавлен: 15 фев 2014
Раздают: 21    Качают: 12
Скачать торрент
Скачать торрент
Описание торрента

СообщениеДобавлено: 15 фев 2014 


Индевор / Стремление / Endeavour

Год выпуска: 2012
Страна: Великобритания
Жанр: драма, криминал, детектив
Продолжительность: ~ 98 мин. / 01:38

Перевод: Любительский (многоголосый закадровый) студия Jaskier (0-4)
Перевод 2: Авторский (одноголосый закадровый) den904 (0-4)
Перевод 3: Профессиональный (многоголосый закадровый) FilmGate (Pilot 0 серия)
Режиссёр: Колм МакКарти / Colm McCarthy

В ролях: Шон Эванс, Роджер Аллам, Чарли Крид-Майлз, Дениэл Уэбб и другие


Описание:
Действие разворачивается в 1965 году. Поиски пропавшей школьницы приводят Индевора Морса обратно в Оксфорд — место, которое определит и сформирует его судьбу. Участвуя в крупномасштабном расследовании убийства во главе с инспектором Фредом Тьюздеем, Индевор оказывается не у дел, будучи дискредитированным и в полном тупике. Столкнувшись с собственным нелицеприятным прошлым, Индевор начинает крестовый поход в поисках справедливости, рискуя всем ради истины, который будет вести до конца своих дней.

Ссылка на предыдущие и альтернативные раздачи

Сэмпл: Скачать
Качество: BDRip 720p
Контейнер: MKV

Видео: AVC (High@L4.1) 1280x720p 16:9 23.976 fps 4 502 Kbps 0.204Bits/pix
Аудио: AC-3 192 Kbps 2 ch 48.0 KHz Russian Jaskier 0-4 серия
Аудио 2: AC-3 192 Kbps 2 ch 48.0 KHz Russian Filmgate 0 серия (пилотный эпизод)
Аудио 3: AC-3 192 Kbps 2 ch 48.0 KHz Russian DEN904 0-4 серия
Аудио 4: AC-3 192 Kbps 2 ch 48.0 KHz English 0-4 серия
Субтитры: (SRT) Agatha (pilot) Skyworker 1-4серия
Субтитры: PGS English 0-4 серия

Приквел известного сериала Inspector Morse

К 25-летию саги "Инспектор Морс" и "Льюис" был снят фильм-приквел.
Можно смотреть как отдельный полнометражный фильм жанра "классический английский детектив".
о FilmGate"
Перевод: Agatha
Роли озвучивали: film45, ireeda, zajiga, HELL, Ozzi, Татьяна Манетина
Работа с эффектами и звуком: Ozzi, Сергей Быковский
студия Jaskier
Перевод: Альберт Фасхутдинов
Роли озвучивали: Денис Строев, Вячеслав Козлов, Сергей Пономарёв, Михаил Кшиштовский и Рина Гришина


0. Endeavour / Индевор
1. Girl / Девушка
2. Fugue / Фуга
3. Rocket / Ракета
4. Home / Дом



General
Unique ID : 274817238364851490036255725926681842040 (0xCEBFDFF6D45145EE20CF5DB9570A9178)
Complete name : /media/Endeavour.S01E00.Pilot.720p.BluRay.AC3.x264.mkv
Format : Matroska
Format version : Version 4 / Version 2
File size : 3.85 GiB
Duration : 1h 42mn
Overall bit rate : 5 377 Kbps
Encoded date : UTC 2013-12-21 05:20:00
Writing application : mkvmerge v6.3.0 ('You can't stop me!') built on Jun 29 2013 11:48:33
Writing library : libebml v1.3.0 + libmatroska v1.4.0

Video
ID : 1
Format : AVC
Format/Info : Advanced Video Codec
Format profile : High@L4.1
Format settings, CABAC : Yes
Format settings, ReFrames : 5 frames
Codec ID : V_MPEG4/ISO/AVC
Duration : 1h 42mn
Bit rate : 4 502 Kbps
Width : 1 280 pixels
Height : 720 pixels
Display aspect ratio : 16:9
Frame rate mode : Constant
Frame rate : 23.976 fps
Color space : YUV
Chroma subsampling : 4:2:0
Bit depth : 8 bits
Scan type : Progressive
Bits/(Pixel*Frame) : 0.204
Stream size : 3.22 GiB (84%)
Language : English
Default : Yes
Forced : No

Audio #1
ID : 2
Format : AC-3
Format/Info : Audio Coding 3
Mode extension : CM (complete main)
Format settings, Endianness : Big
Codec ID : A_AC3
Duration : 1h 42mn
Bit rate mode : Constant
Bit rate : 192 Kbps
Channel count : 2 channels
Channel positions : Front: L R
Sampling rate : 48.0 KHz
Bit depth : 16 bits
Compression mode : Lossy
Stream size : 141 MiB (4%)
Title : Jaskier
Language : Russian
Default : Yes
Forced : No

Audio #2
ID : 3
Format : AC-3
Format/Info : Audio Coding 3
Mode extension : CM (complete main)
Format settings, Endianness : Big
Codec ID : A_AC3
Duration : 1h 42mn
Bit rate mode : Constant
Bit rate : 192 Kbps
Channel count : 2 channels
Channel positions : Front: L R
Sampling rate : 48.0 KHz
Bit depth : 16 bits
Compression mode : Lossy
Stream size : 141 MiB (4%)
Title : Filmgate
Language : Russian
Default : No
Forced : No

Audio #3
ID : 4
Format : AC-3
Format/Info : Audio Coding 3
Mode extension : CM (complete main)
Format settings, Endianness : Big
Codec ID : A_AC3
Duration : 1h 42mn
Bit rate mode : Constant
Bit rate : 192 Kbps
Channel count : 2 channels
Channel positions : Front: L R
Sampling rate : 48.0 KHz
Bit depth : 16 bits
Compression mode : Lossy
Stream size : 141 MiB (4%)
Title : DEN904
Language : Russian
Default : No
Forced : No

Audio #4
ID : 5
Format : AC-3
Format/Info : Audio Coding 3
Mode extension : CM (complete main)
Format settings, Endianness : Big
Codec ID : A_AC3
Duration : 1h 42mn
Bit rate mode : Constant
Bit rate : 192 Kbps
Channel count : 2 channels
Channel positions : Front: L R
Sampling rate : 48.0 KHz
Bit depth : 16 bits
Compression mode : Lossy
Stream size : 141 MiB (4%)
Title : English
Language : English
Default : No
Forced : No

Text #1
ID : 6
Format : UTF-8
Codec ID : S_TEXT/UTF8
Codec ID/Info : UTF-8 Plain Text
Title : Russian
Language : Russian
Default : No
Forced : No

Text #2
ID : 7
Format : PGS
Muxing mode : zlib
Codec ID : S_HDMV/PGS
Codec ID/Info : The same subtitle format used on BDs/HD-DVDs
Title : English
Language : English
Default : No
Forced : No

Menu
00:00:00.000 : en:00:00:00.000
00:14:33.372 : en:00:14:33.372
00:28:52.397 : en:00:28:52.397
00:39:41.129 : en:00:39:41.129
00:47:55.414 : en:00:47:55.414
01:03:57.792 : en:01:03:57.792
01:22:36.243 : en:01:22:36.243
01:29:30.574 : en:01:29:30.574





BD-Rip выполнен программой pavtube blu-ray ripper



   Похожие торренты   Торрент   Размер 
В этой теме нет новых непрочитанных сообщений. Индевор (Стремление) / Endeavour [02x01-04 из 04] (2014) WEB-DL 720p | L1

111 | 21

10.77 ГБ

В этой теме нет новых непрочитанных сообщений. Индевор / Стремление / Молодой Морс / Endeavour [s02] 2014 HDTV 720p

1259 | 104

5.28 ГБ

В этой теме нет новых непрочитанных сообщений. Индевор / Стремление / Молодой Морс / Endeavour [s02] (2014) HDTV 720p | Sub

38 | 24

4.88 ГБ

В этой теме нет новых непрочитанных сообщений. Индевор / Endeavour [s01] (2012-2013) Blu-Ray 1080p от HDClub

0 | 1

100.91 ГБ

В этой теме нет новых непрочитанных сообщений. Индевор / Endeavour [S01] (2012) HDTVRip | L1

11 | 4

4.17 ГБ

В этой теме нет новых непрочитанных сообщений. Индевор / Endeavour [01x01] (2012) HDTVRip | FilmGate

10 | 3

1.25 ГБ

В этой теме нет новых непрочитанных сообщений. Индевор / Молодой Морс / Endeavour [S01] (2013) WEB-DLRip | P

73 | 43

5.43 ГБ




Вы не можете начинать темы
Вы не можете отвечать на сообщения
Вы не можете редактировать свои сообщения
Вы не можете удалять свои сообщения
Вы не можете добавлять вложения

Перейти:  
Для Мосгорсуда, Роскомнадзора и рекламодателей: mosgorsud-torrent[собачка]yandex.ru
 Вход
ppkBB3cker v.2 © 2008-2014 @ PPK
[ Time : 0.032s | 15 Queries | GZIP : Off ]

Торрент трекер RUTOR.IN, Не можете зайти на rutor.org? Какой новый адрес рутор? Какое зеркало рутор? Не работает rutor.org и зеркала? Тогда наш торрент специально для вас. Rutor.in неофициальное зеркало rutor. В случае если у Вас заблокирован rutor или вдруг Вы не можете на него зайти, то Вы без труда сможете скачать бесплатно и без рекламы последние новинки кино, игр, сериалов и прочего у нас, на Rutor.in. Не нужно использовать прокси, чтобы зайти на рутор, достаточно воспользоваться нашим ресурсом. Все новые фильмы, игры, сериалы, книги и музыка за 2013 и 2014 годы через торрент бесплатно. Скачивайте фильмы в хорошем качестве, игры для пк, xbox, playstation без регистрации. У нас вы найдете новые Зарубежные сериалы и Русские сериалы 2013, 2014, 2015 годов. Оставайтесь с нами, качайте любимые фильмы, игры, сериалы, книги и музыку.