img image001 image001 image001 image001 image001 image001 image001 image001 image001 image001 image001 image001 image001 image001 image001

Planets Sun Sun Sun
Статистика раздачи
Автор: PriZraK | Размер: 1.47 ГБ | Добавлен: 15 фев 2014
Раздают: 12    Качают: 6
Скачать торрент
Скачать торрент
Описание торрента

СообщениеДобавлено: 15 фев 2014 




Название: Хэйвен (Тайны Хейвена)
Оригинальное название: Haven
Год выхода: 2013
Жанр: Мистический триллер, криминальный детектив, ужасы
Выпущено: США, Канада / Big Motion Pictures, CanWest Global Television Network, Entertainment One
Режиссер: Т.У. Пикок, Ли Роуз, Тим Соутэм, Фред Гербер, Роберт Либерман, Рейчел Тэлалей, Шоун Пиллер
В ролях: Эмили Роуз, Лукас Брайант, Эрик Бальфур, Ричард Донат, Джон Дансуорт, Николас Кэмпбелл, Адам Коуплэнд, Бри Уильямсон, Глен Лефчак, Кейт Келтон, Стивен МакХэтти, Кристофер Шор, Винесса Антуан, Морис Дин Винт

О фильме: За основу взят сюжет из книги Стивена Кинга "The Colorado Kid" ("Дитя Колорадо"). В маленький город Хейвен приезжает агент ФБР Одри Паркер, чтобы расследовать смерть бывшего преступника. Из-за своего природного любопытства она попала в эпицентр этого необычного анклава, который, оказывается, издавна служил пристанищем для людей со сверхспособностями. Среди местных жителей города полицейский Натан Вурно, который стал напарником Одри, и загадочный и обаятельный мастер на все руки Дюк Крокер.

Качество: WEB-DLRip, HDTVRip
Видео: MPEG-4 AVC, 312 Кбит/с, 720x400
Аудио: Русский (AAC, 1 ch, 64 Кбит/с) / Профессиональный многоголосый (BaibaKo)
Продолжительность: 13 x ~ 00:43:00

Тайны хейвена4х08.mp4
General
Complete name : D:Film'sтайны хейвена4х08из13.mp4
Format : MPEG-4
Format profile : Base Media
Codec ID : isom
File size : 116 MiB
Duration : 43mn 5s
Overall bit rate mode : Variable
Overall bit rate : 378 Kbps
Writing application : Lavf52.93.0
Video #1
ID : 1
Format : AVC
Format/Info : Advanced Video Codec
Format profile : High@L3.0
Format settings, CABAC : Yes
Format settings, ReFrames : 4 frames
Codec ID : avc1
Codec ID/Info : Advanced Video Coding
Duration : 43mn 5s
Bit rate : 312 Kbps
Width : 720 pixels
Height : 400 pixels
Display aspect ratio : 16:9
Frame rate mode : Constant
Frame rate : 23.976 fps
Color space : YUV
Chroma subsampling : 4:2:0
Bit depth : 8 bits
Scan type : Progressive
Bits/(Pixel*Frame) : 0.045
Stream size : 96.1 MiB (83%)
Writing library : x264 core 118
Encoding settings : cabac=1 / ref=3 / deblock=1:0:0 / analyse=0x3:0x113 / me=hex / subme=7 / psy=1 / psy_rd=1.00:0.00 / mixed_ref=1 / me_range=16 / chroma_me=1 / trellis=1 / 8x8dct=1 / cqm=0 / deadzone=21,11 / fast_pskip=1 / chroma_qp_offset=-2 / threads=36 / sliced_threads=0 / nr=0 / decimate=1 / interlaced=0 / bluray_compat=0 / constrained_intra=0 / bframes=3 / b_pyramid=2 / b_adapt=1 / b_bias=0 / direct=1 / weightb=1 / open_gop=0 / weightp=2 / keyint=25 / keyint_min=13 / scenecut=40 / intra_refresh=0 / rc_lookahead=25 / rc=2pass / mbtree=1 / bitrate=312 / ratetol=1.0 / qcomp=0.60 / qpmin=10 / qpmax=51 / qpstep=4 / cplxblur=20.0 / qblur=0.5 / ip_ratio=1.41 / aq=1:1.00
Audio #2
ID : 2
Format : AAC
Format/Info : Advanced Audio Codec
Format profile : LC
Codec ID : 40
Duration : 43mn 5s
Bit rate mode : Variable
Bit rate : 60.1 Kbps
Channel(s) : 1 channel
Channel positions : Front: C
Sampling rate : 44.1 KHz
Compression mode : Lossy
Delay relative to video : 83ms
Stream size : 18.5 MiB (16%)
Language : Russian






   Похожие торренты   Торрент   Размер 
В этой теме нет новых непрочитанных сообщений. Хэйвен / Тайны Хейвена / Haven [S04] (2013) WEB-DLRip | BaibaKo

47 | 10

7.39 ГБ

В этой теме нет новых непрочитанных сообщений. Хэйвен / Тайны Хейвена / Haven [05х01-02 из 26] (2014) WEB-DLRip | BaibaKo

331 | 116

1.14 ГБ

В этой теме нет новых непрочитанных сообщений. Хэйвен / Тайны Хейвена / Haven [05х01-03 из 26] (2014) WEB-DLRip | BaibaKo

190 | 118

1.71 ГБ

В этой теме нет новых непрочитанных сообщений. Хэйвен / Тайны Хейвена / Haven [S01-04] (2010-2013) WEB-DLRip | Кубик в Кубе

60 | 50

22.93 ГБ

В этой теме нет новых непрочитанных сообщений. Хэйвен / Тайны Хейвена / Haven [05х01-11 из 13] (2014) WEB-DLRip от CasStudio | Кубик в Кубе

122 | 164

9.13 ГБ

В этой теме нет новых непрочитанных сообщений. Хэйвен / Тайны Хейвена / Haven [05х01 из 13] (2014) WEB-DLRip от CasStudio | Кубик в Кубе

67 | 12

842.14 МБ

В этой теме нет новых непрочитанных сообщений. Хэйвен / Тайны Хейвена / Haven [05х01-02 из 13] (2014) WEB-DLRip от CasStudio | Кубик в Кубе

69 | 34

1.66 ГБ




Вы не можете начинать темы
Вы не можете отвечать на сообщения
Вы не можете редактировать свои сообщения
Вы не можете удалять свои сообщения
Вы не можете добавлять вложения

Перейти:  
Для Мосгорсуда, Роскомнадзора и рекламодателей: mosgorsud-torrent[собачка]yandex.ru
 Вход
ppkBB3cker v.2 © 2008-2014 @ PPK
[ Time : 0.028s | 15 Queries | GZIP : On ]

Торрент трекер RUTOR.IN, Не можете зайти на rutor.org? Какой новый адрес рутор? Какое зеркало рутор? Не работает rutor.org и зеркала? Тогда наш торрент специально для вас. Rutor.in неофициальное зеркало rutor. В случае если у Вас заблокирован rutor или вдруг Вы не можете на него зайти, то Вы без труда сможете скачать бесплатно и без рекламы последние новинки кино, игр, сериалов и прочего у нас, на Rutor.in. Не нужно использовать прокси, чтобы зайти на рутор, достаточно воспользоваться нашим ресурсом. Все новые фильмы, игры, сериалы, книги и музыка за 2013 и 2014 годы через торрент бесплатно. Скачивайте фильмы в хорошем качестве, игры для пк, xbox, playstation без регистрации. У нас вы найдете новые Зарубежные сериалы и Русские сериалы 2013, 2014, 2015 годов. Оставайтесь с нами, качайте любимые фильмы, игры, сериалы, книги и музыку.