img image001 image001 image001 image001 image001 image001 image001 image001 image001 image001 image001 image001 image001 image001 image001

Planets Sun Sun Sun
Статистика раздачи
Автор: PriZraK | Размер: 10.82 ГБ | Добавлен: 15 фев 2014
Раздают: 28    Качают: 19
Скачать торрент
Скачать торрент
Описание торрента

СообщениеДобавлено: 15 фев 2014 




Страна: Россия / Централ Партнершип, Канал Россия
Жанр: триллер, детектив, приключения
Год выпуска: 2013
Продолжительность: 8 x ~01:30:00

Перевод: не требуется
Cубтитры: нет
Оригинальная аудиодорожка: русский

Режиссер: Андрей Кавун

В ролях: Андрей Панин, Игорь Петренко, Михаил Боярский, Елизавета Боярская, Ольга Волкова, Александр Ильин, Игорь Жижикин, Леонид Ярмольник, Александр Голубев, Лянка Грыу...

Описание: Этот сериал возвращает нас на Бейкер-стрит, 221б, где проживают уже давно знакомые персонажи: гениальный сыщик Шерлок Холмс и его друг и летописец, ветеран афганской войны доктор Джон Ватсон. Только теперь у них новые лица: главные роли исполняют звёзды нового актёрского поколения, Игорь Петренко и Андрей Панин. История, как и прежде, начинается со знакомства: доктор Ватсон, в поисках жилья в Лондоне, снимает квартиру у добропорядочной вдовы, миссис Хадсон, на пару с весьма эксцентричным молодым человеком, чей род занятий он никак не может вычислить. Ватсон приходит к выводу, что его сосед — злоумышленник и преступник, но выясняется, что всё ровно наоборот: Шерлок Холмс — гроза преступного мира, знаменитый частный сыщик, к услугам которого Скотленд-Ярд прибегает, когда чувствует своё бессилие (а происходит это регулярно). Доктор вовлекается в захватывающую жизнь своего нового друга, становится его постоянным напарником в расследованиях — и пишет рассказы об их совместных похождениях.



Качество: DVDRip (4 x DVD9 R5)
Формат: AVI

Видео: 720x400 (16:9), 25.000 fps, XViD ~ 2000 kbps avg, 0.278 bit/pixel
Аудио: 48 kHz, АС3 2 ch, 192 kbps, русский

Раздача от:
Общее
Полное имя : Sherlok.Holms.2013.O.DVDRip_[New-Team]_by_avproh\01.avi
Формат : AVI
Формат/Информация : Audio Video Interleave
Размер файла : 1,28 Гбайт
Продолжительность : 1 ч. 26 м.
Общий поток : 2113 Кбит/сек
Программа кодирования : VirtualDubModRus 1.5.10.2 (build 2542/release)
Библиотека кодирования : VirtualDubMod build 2542/release

Видео
Идентификатор : 0
Формат : MPEG-4 Visual
Профиль формата : Advanced Simple@L5
Параметр BVOP формата : 1
Параметр QPel формата : Нет
Параметр GMC формата : Без точки перехода
Параметр матрицы формата : Выборочная
Идентификатор кодека : XVID
Идентификатор кодека/Подсказка : XviD
Продолжительность : 1 ч. 26 м.
Битрейт : 1912 Кбит/сек
Ширина : 720 пикселей
Высота : 400 пикселей
Соотношение сторон : 16:9
Частота кадров : 25,000 кадров/сек
Цветовое пространство : YUV
Субдискретизация насыщенности : 4:2:0
Битовая глубина : 8 бит
Тип развёртки : Прогрессивная
Метод сжатия : С потерями
Бит/(Пиксели*Кадры) : 0.266
Размер потока : 1,16 Гбайт (90%)
Библиотека кодирования : XviD 73

Аудио
Идентификатор : 1
Формат : AC-3
Формат/Информация : Audio Coding 3
Расширение режима : CM (complete main)
Параметр Endianness формата : Big
Идентификатор кодека : 2000
Продолжительность : 1 ч. 26 м.
Вид битрейта : Постоянный
Битрейт : 192 Кбит/сек
Каналы : 2 канала
Расположение каналов : Front: L R
Частота : 48,0 КГц
Битовая глубина : 16 бит
Метод сжатия : С потерями
Размер потока : 119 Мбайт (9%)
Выравнивание : Разделение по промежуткам
Продолжительность промежутка : 40 мс. (1,00 видеокадр)
Время предзагрузки промежутка : 500 мс.






   Похожие торренты   Торрент   Размер 
В этой теме нет новых непрочитанных сообщений. Шерлок Холмс [01-08 из 08] (2013) DVDRip-AVC от New-Team | лицензия

122 | 38

10.7 ГБ

В этой теме нет новых непрочитанных сообщений. Шерлок Холмс [01-16 из 16] (2013) DVDRip от GeneralFilm | Лицензия | КПК

109 | 13

2.8 ГБ

В этой теме нет новых непрочитанных сообщений. Шерлок Холмс и доктор Ватсон: Двадцатый век начинается (1986) DVDRip от New-team

47 | 16

1.46 ГБ

В этой теме нет новых непрочитанных сообщений. Шерлок Холмс и доктор Ватсон: Двадцатый век начинается (1986) DVDRip-AVC от New-team

111 | 15

2.18 ГБ

В этой теме нет новых непрочитанных сообщений. Шерлок Холмс и доктор Ватсон: Собака Баскервилей (1981) DVDRip-AVC от New-team

261 | 7

2.18 ГБ

В этой теме нет новых непрочитанных сообщений. Шерлок Холмс и доктор Ватсон: Собака Баскервилей (1981) DVDRip от New-team

182 | 13

1.45 ГБ

В этой теме нет новых непрочитанных сообщений. Шерлок Холмс и доктор Ватсон: Сокровища Агры (1983) DVDRip от New-team

196 | 34

2.19 ГБ




Вы не можете начинать темы
Вы не можете отвечать на сообщения
Вы не можете редактировать свои сообщения
Вы не можете удалять свои сообщения
Вы не можете добавлять вложения

Перейти:  
Для Мосгорсуда, Роскомнадзора и рекламодателей: mosgorsud-torrent[собачка]yandex.ru
 Вход
ppkBB3cker v.2 © 2008-2014 @ PPK
[ Time : 0.056s | 16 Queries | GZIP : Off ]

Торрент трекер RUTOR.IN, Не можете зайти на rutor.org? Какой новый адрес рутор? Какое зеркало рутор? Не работает rutor.org и зеркала? Тогда наш торрент специально для вас. Rutor.in неофициальное зеркало rutor. В случае если у Вас заблокирован rutor или вдруг Вы не можете на него зайти, то Вы без труда сможете скачать бесплатно и без рекламы последние новинки кино, игр, сериалов и прочего у нас, на Rutor.in. Не нужно использовать прокси, чтобы зайти на рутор, достаточно воспользоваться нашим ресурсом. Все новые фильмы, игры, сериалы, книги и музыка за 2013 и 2014 годы через торрент бесплатно. Скачивайте фильмы в хорошем качестве, игры для пк, xbox, playstation без регистрации. У нас вы найдете новые Зарубежные сериалы и Русские сериалы 2013, 2014, 2015 годов. Оставайтесь с нами, качайте любимые фильмы, игры, сериалы, книги и музыку.