img image001 image001 image001 image001 image001 image001 image001 image001 image001 image001 image001 image001 image001 image001 image001

Planets Sun Sun Sun
Статистика раздачи
Автор: PriZraK | Размер: 9.83 ГБ | Добавлен: 15 фев 2014
Раздают: 2    Качают: 2
Скачать торрент
Скачать торрент
Описание торрента

СообщениеДобавлено: 15 фев 2014 




Информация о фильме
Название: Анатомия страсти / Анатомия Грей
Оригинальное название: Grey's Anatomy
Год выхода: 2013
Жанр: медицинская драма, мелодрама
Режиссер: Роб Корн, Тони Фелан, Том Верика, Чандра Уилсон
В ролях: Эллен Помпео (Мередит Грей), Кэтрин Хайгл (Иззи Стивенс), Сандра О (Кристина Янг), Джастин Чэмберс (Алекс Карев), Кайлер Ли (Лекси Грей), Патрик Дэмпси (Дерек Шепард), Сара Рамирез (Кэлли Торрес), Эрик Дэйнс (Марк Слоан), Джеймс Пикенс мл. (Шеф Веббер), Чэндра Уилсон (Миранда Бэйли), Кевин МакКидд (Оуэн Хант), Джессика Кэпшоу (Аризона Роббинс) и др.

О фильме:
Продолжение знаменитой медицинской драмы о работе и личных отношениях хирургов сиэтлской больницы. Каждый день наполнен болью и счастьем, ссорами и примирениями, сложными дилеммами и необходимостью принять моментальное решение от которого зависит жизнь человека. В центре сюжета хирург - Мередит...
01. Клеймо на нашей судьбе / Seal Our Fate
02. Я хочу быть с тобой / I Want You with Me
03. Плач милосердия каждого / Everybody's Crying Mercy
04. Одевающиеся по последней моде / Puttin' on the Ritz
05. Бьюсь об заклад, оно жжется / I Bet It Stung
06. Карта тебя / Map of You

- Кэтрин Хайгл — самая молодая в актерском составе «Анатомии страсти» (1-3 сезоны).
- Актриса Сандра О изначально пробовалась на роль доктора Бейли.
- В одном из первых эпизодов Мередит вывешивает объявление для поиска соседей к себе в дом. Данное объявление появляется в кадре всего одну секунду. В одном из требований к предполагаемым соседям указывается, что сторонники Буша не приветствуются.
- Каждая серия сериала называется в честь песен известных исполнителей. Некоторые из них названы в честь песен группы «The Beatles».
- Персонаж Кейт Уолш, Эддисон Шеперд, изначально планировался использоваться в пяти сериях, но значительный интерес и поддержка со стороны фанов привели к тому, что её персонаж оставили в сериале.
- Исайя Вашингтон был вынужден покинуть сериал после 3-го сезона в связи со скандалом, разразившимся на церемонии «Золотой глобус», во время которой выяснилось, что Вашингтон несколько раз оскорбил своего коллегу Т. Р. Найта, указав на его нетрадиционную ориентацию.
- На «Шоу Опры Уинфри» актёр Исайя Вашингтон заявил, что пробовался на роль доктора Шеперда.
- Герой Кевина МакКидда носит хронограф Panerai PAM196.


Страна: США
Студия: ABC
Продолжительность: ~ 00:44:00
Перевод: Профессиональный (многоголосый, закадровый) - Fox Life

Файл
Кодек: x264
Качество: WEB-DL 720p
Видео: MPEG-4 AVC, ~ 4000 Кбит/с, 1280x720
Звук:
Русский (AC3, 2 ch, 192 Кбит/с), английский (AC3, 6 ch, 384 Кбит/с)
Субтитры: Русские (FanatoMy Team), Английские

Запись и сведение дорожки Fox Life
За субтитры спасибо requiem
Общее
Формат : Matroska
Версия формата : Version 4 / Version 2
Размер файла : 1,40 Гбайт
Продолжительность : 43 м.
Общий поток : 4651 Кбит/сек
Дата кодирования : UTC 2013-11-09 19:30:55
Программа кодирования : mkvmerge v6.5.0 ('Isn't she lovely') built on Oct 20 2013 12:50:05
Библиотека кодирования : libebml v1.3.0 + libmatroska v1.4.1

Видео
Идентификатор : 1
Формат : AVC
Формат/Информация : Advanced Video Codec
Профиль формата : High@L3.1
Параметр CABAC формата : Нет
Параметр ReFrames формата : 2 кадра
Идентификатор кодека : V_MPEG4/ISO/AVC
Продолжительность : 43 м.
Битрейт : 3982 Кбит/сек
Ширина : 1280 пикселей
Высота : 720 пикселей
Соотношение сторон : 16:9
Режим частоты кадров : Постоянный
Частота кадров : 23,976 кадра/сек
Цветовое пространство : YUV
Субдискретизация насыщенности : 4:2:0
Битовая глубина : 8 бит
Тип развёртки : Прогрессивная
Бит/(Пиксели*Кадры) : 0.180
Размер потока : 1,20 Гбайт (86%)
Язык : English
Default : Да
Forced : Нет
Основные цвета : BT.709
Характеристики трансфера : BT.709
Коэффициенты матрицы : BT.709

Аудио #1
Идентификатор : 2
Формат : AC-3
Формат/Информация : Audio Coding 3
Расширение режима : CM (complete main)
Параметр Endianness формата : Big
Идентификатор кодека : A_AC3
Продолжительность : 43 м.
Вид битрейта : Постоянный
Битрейт : 192 Кбит/сек
Каналы : 2 канала
Расположение каналов : Front: L R
Частота : 48,0 КГц
Битовая глубина : 16 бит
Метод сжатия : С потерями
Размер потока : 59,2 Мбайт (4%)
Заголовок : Fox Life
Язык : Russian
Default : Да
Forced : Нет

Аудио #2
Идентификатор : 3
Формат : AC-3
Формат/Информация : Audio Coding 3
Расширение режима : CM (complete main)
Параметр Endianness формата : Big
Идентификатор кодека : A_AC3
Продолжительность : 43 м.
Вид битрейта : Постоянный
Битрейт : 384 Кбит/сек
Каналы : 6 каналов
Расположение каналов : Front: L C R, Side: L R, LFE
Частота : 48,0 КГц
Битовая глубина : 16 бит
Метод сжатия : С потерями
Размер потока : 118 Мбайт (8%)
Язык : English
Default : Нет
Forced : Нет

Текст #1
Идентификатор : 4
Формат : UTF-8
Идентификатор кодека : S_TEXT/UTF8
Идентификатор кодека/Информация : UTF-8 Plain Text
Язык : Russian
Default : Нет
Forced : Нет

Текст #2
Идентификатор : 5
Формат : UTF-8
Идентификатор кодека : S_TEXT/UTF8
Идентификатор кодека/Информация : UTF-8 Plain Text
Язык : English
Default : Нет
Forced : Нет







   Похожие торренты   Торрент   Размер 
В этой теме нет новых непрочитанных сообщений. Анатомия страсти / Анатомия Грей / Grey's Anatomy [10x01-07] (2013) WEB-DLRip | Fox Life

96 | 5

3.42 ГБ

В этой теме нет новых непрочитанных сообщений. Анатомия страсти / Анатомия Грей / Grey's Anatomy [10x01-09] (2013) HDTV 1080i | Fox Life

12 | 37

17.83 ГБ

В этой теме нет новых непрочитанных сообщений. Анатомия страсти / Анатомия Грей / Grey's Anatomy [10x01-13] (2013) WEB-DL 720p | Sub

6 | 9

9.15 ГБ

В этой теме нет новых непрочитанных сообщений. Анатомия страсти / Анатомия Грей / Grey's Anatomy [10x01-12] (2013) WEB-DL 720p | Sub

0 | 4

8.42 ГБ

В этой теме нет новых непрочитанных сообщений. Анатомия страсти / Анатомия Грей / Grey's Anatomy [10x01-10] (2013) WEB-DL 720p | Tomas

2 | 2

14.64 ГБ

В этой теме нет новых непрочитанных сообщений. Анатомия страсти / Анатомия Грей / Grey's Anatomy [10x01-13] (2013) WEB-DL 720p | Tomas

14 | 17

18.89 ГБ

В этой теме нет новых непрочитанных сообщений. Анатомия страсти / Анатомия Грей / Grey's Anatomy [10x01-12] (2013) HDTVRip | Tomas

12 | 6

4.86 ГБ




Вы не можете начинать темы
Вы не можете отвечать на сообщения
Вы не можете редактировать свои сообщения
Вы не можете удалять свои сообщения
Вы не можете добавлять вложения

Перейти:  
Для Мосгорсуда, Роскомнадзора и рекламодателей: mosgorsud-torrent[собачка]yandex.ru
 Вход
ppkBB3cker v.2 © 2008-2014 @ PPK
[ Time : 0.058s | 16 Queries | GZIP : Off ]

cron