img image001 image001 image001 image001 image001 image001 image001 image001 image001 image001 image001 image001 image001 image001 image001

Planets Sun Sun Sun
Статистика раздачи
Автор: PriZraK | Размер: 1.97 ГБ | Добавлен: 15 фев 2014
Раздают: 0    Качают: 2
Скачать торрент
Скачать торрент
Описание торрента

СообщениеДобавлено: 15 фев 2014 



Страна: Россия
Производство: "Фора-фильм М"
Жанр: Драма
Год выпуска: 2008

Продолжительность: 4 х ~ 00:50:00
Язык: Русский

Режиссер: Андрей Разумовский, Андрей Разумовский мл
В ролях: Александр Пашутин, Борис Галкин, Ирина Лачина, Роман Индык, Андрей Каверин, Павел Сиротин, Александр Власов, Илья Крутояров, Станислав Эрдлей, Мария Бакушинская
Описание: 13-летний детдомовец, оказавшись соучастником убийства, совершает побег из приюта. Приехав в Москву, он попадает в центр для трудных подростков, где переосмысливает свою прошлую жизнь и находит новых друзей. Директор Детдома и психолог помогают мальчику избежать незаслуженого обвинения и вырваться из под влияния воровского авторитета.



Исходник: DVD5 R5

Тип релиза: DVDRip

Контейнер: AVI
Видео: 704x528 (1.33:1), 23.976 fps, XviD ~1143 kbps avg, 0.13 bit/pixel
Аудио: 48 kHz, AC3 6.0 ~256.00 kbps avg
Общее
Полное имя : D:1АААНа мосту1 серия.avi
Формат : AVI
Формат/Информация : Audio Video Interleave
Размер файла : 505 Мбайт
Продолжительность : 50 м.
Общий поток : 1409 Кбит/сек
Программа кодирования : VirtualDubMod 1.5.10.3 | www.virtualdub-fr.org || (build 2550/release)
Библиотека кодирования : VirtualDubMod build 2550/release

Видео
Идентификатор : 0
Формат : MPEG-4 Visual
Профиль формата : Advanced Simple@L5
Параметр BVOP формата : 2
Параметр QPel формата : Нет
Параметр GMC формата : Без точки перехода
Параметр матрицы формата : Default (MPEG)
Режим смешивания : Сжатый битовый поток
Идентификатор кодека : XVID
Идентификатор кодека/Подсказка : XviD
Продолжительность : 50 м.
Битрейт : 1144 Кбит/сек
Ширина : 704 пикселя
Высота : 528 пикселей
Соотношение сторон : 4:3
Частота кадров : 23,976 кадра/сек
Цветовое пространство : YUV
Субдискретизация насыщенности : 4:2:0
Битовая глубина : 8 бит
Тип развёртки : Прогрессивная
Метод сжатия : С потерями
Бит/(Пиксели*Кадры) : 0.128
Размер потока : 409 Мбайт (81%)
Библиотека кодирования : XviD 1.2.1 (UTC 2008-12-04)

Аудио
Идентификатор : 1
Формат : AC-3
Формат/Информация : Audio Coding 3
Расширение режима : CM (complete main)
Параметр Endianness формата : Big
Идентификатор кодека : 2000
Продолжительность : 50 м.
Вид битрейта : Постоянный
Битрейт : 256 Кбит/сек
Каналы : 6 каналов
Расположение каналов : Front: L C R, Side: L R, LFE
Частота : 48,0 КГц
Битовая глубина : 16 бит
Метод сжатия : С потерями
Размер потока : 91,6 Мбайт (18%)
Выравнивание : Разделение по промежуткам
Продолжительность промежутка : 42 мс. (1,00 видеокадр)
Время предзагрузки промежутка : 500 мс.










Релиз группа:

Автор рипа:



   Похожие торренты   Торрент   Размер 
В этой теме нет новых непрочитанных сообщений. Девушка на мосту / La fille sur le pont (1999) DVDRip

21 | 2

1.46 ГБ

В этой теме нет новых непрочитанных сообщений. Девушка на мосту / La fille sur le pont (1999) DVDRip

8 | 1

745.87 МБ

В этой теме нет новых непрочитанных сообщений. Девушка на мосту / La fille sur le pont (1999) DVDRip от MediaClub | КПК

6 | 4

399.39 МБ

В этой теме нет новых непрочитанных сообщений. Девушка на мосту / La fille sur le pont (1999) DVDRip от Scarabey | P

106 | 13

1.45 ГБ

В этой теме нет новых непрочитанных сообщений. Девушка на мосту / La fille sur le pont (1999) DVDRip от Scarabey | P

3 | 4

741.98 МБ

В этой теме нет новых непрочитанных сообщений. Случай на мосту через Совиный ручей или истории Амброза Бирса о Гражданской войне / Ambrose Bierce: Civil War Stories (2006) DVDRip

10 | 4

1.46 ГБ

В этой теме нет новых непрочитанных сообщений. Мираж (2008) DVDRip от NovaLan

29 | 55

1.8 ГБ




Вы не можете начинать темы
Вы не можете отвечать на сообщения
Вы не можете редактировать свои сообщения
Вы не можете удалять свои сообщения
Вы не можете добавлять вложения

Перейти:  
Для Мосгорсуда, Роскомнадзора и рекламодателей: mosgorsud-torrent[собачка]yandex.ru
 Вход
ppkBB3cker v.2 © 2008-2014 @ PPK
[ Time : 0.051s | 14 Queries | GZIP : Off ]

Торрент трекер RUTOR.IN, Не можете зайти на rutor.org? Какой новый адрес рутор? Какое зеркало рутор? Не работает rutor.org и зеркала? Тогда наш торрент специально для вас. Rutor.in неофициальное зеркало rutor. В случае если у Вас заблокирован rutor или вдруг Вы не можете на него зайти, то Вы без труда сможете скачать бесплатно и без рекламы последние новинки кино, игр, сериалов и прочего у нас, на Rutor.in. Не нужно использовать прокси, чтобы зайти на рутор, достаточно воспользоваться нашим ресурсом. Все новые фильмы, игры, сериалы, книги и музыка за 2013 и 2014 годы через торрент бесплатно. Скачивайте фильмы в хорошем качестве, игры для пк, xbox, playstation без регистрации. У нас вы найдете новые Зарубежные сериалы и Русские сериалы 2013, 2014, 2015 годов. Оставайтесь с нами, качайте любимые фильмы, игры, сериалы, книги и музыку.