img image001 image001 image001 image001 image001 image001 image001 image001 image001 image001 image001 image001 image001 image001 image001

Planets Sun Sun Sun
Статистика раздачи
Автор: PriZraK | Размер: 6.15 ГБ | Добавлен: 15 фев 2014
Раздают: 0    Качают: 5
Скачать торрент
Скачать торрент
Описание торрента

СообщениеДобавлено: 15 фев 2014 


Заложники / Hostages

Год выпуска: 2013
Страна: США
Жанр: триллер, драма
Продолжительность: 00:45:00

Перевод: Любительский (многоголосый закадровый) (ViruseProject)
Русские субтитры: нет
Режиссёр: Джейсон Энслер, Джеффри Начманофф

В ролях: Тони Коллетт, Дилан МакДермотт, Тейт Донован, Куинн Шепард, Матеус Уорд, Билли Браун, Сандрин Холт, Риз Койро, Джеймс Нафтон, Тайлер Эллиот Бурк

Описание: Hostages — остросюжетный триллер, рассказывающий о докторе Эллен Сандерс, первоклассном хирурге, втянутой в политический заговор после того, как ее семью берет в заложники вышедший из-под контроля агент ФБР Дункан Карлайл. Карлайл приказывает ей убить президента, когда она будет проводить над ним операцию. Жизнь семьи Эллен находится под угрозой и Эллен предстоит сделать непосильный выбор, чтобы спасти своего мужа, дочку и сына. Ставки между Эллен и Карлайлом высоки как никогда, а грань между правильным и неправильным никогда не была столь размытой.


Релиз:

Над релизом трудились:
Озвучка:
*Алла Блаер (с 1 по 6 серии)
*Марина Видякина (с 7 серии)
*Татьяна Романовская

*Алекс Викке
*Борис Александров
*Дмитрий Иванов

Перевод:AkI3aIPuyC, Vela и Нотабеноид
Монтаж:Татьяна Романовская
Сведение звука, подготовка видео:viruse (Виталий Емельянов)
смотреть ТРЕЙЛЕР СЕРИАЛА на РУССКОМ ЯЗЫКЕ на youtube

смотреть СЕМПЛ озвучки на youtube
смотреть СЕМПЛ №2 озвучки на youtube
скачать СЕМПЛ с multi-up

Качество: WEB-DLRip
Формат: AVI
Видео кодек: XviD
Аудио кодек: MP3
Видео: 720x400 (1.80:1), 23.976 fps, XviD build 50 ~1483 kbps avg, 0.22 bit/pixel
Аудио: 48 kHz, MPEG Layer 3, 2 ch, ~192.00 kbps avg
E:ОЗВУЧКАСЕРИАЛЫHostages.S01.ViruseProjectHostages.S01.ViruseProjectHostages.S01E01.ViruseProject.avi
General
Complete name : E:ОЗВУЧКАСЕРИАЛЫHostages.S01.ViruseProjectHostages.S01.ViruseProjectHostages.S01E01.ViruseProject.avi
Format : AVI
Format/Info : Audio Video Interleave
File size : 523 MiB
Duration : 43mn 22s
Overall bit rate : 1 685 Kbps
Writing application : VirtualDubMod 1.5.10.2 (build 2540/release)
Writing library : VirtualDubMod build 2540/release
Video #0
ID : 0
Format : MPEG-4 Visual
Format profile : Advanced Simple@L5
Format settings, BVOP : 1
Format settings, QPel : No
Format settings, GMC : No warppoints
Format settings, Matrix : Default (MPEG)
Codec ID : XVID
Codec ID/Hint : XviD
Duration : 43mn 22s
Bit rate : 1 484 Kbps
Width : 720 pixels
Height : 400 pixels
Display aspect ratio : 16:9
Frame rate : 23.976 fps
Color space : YUV
Chroma subsampling : 4:2:0
Bit depth : 8 bits
Scan type : Progressive
Compression mode : Lossy
Bits/(Pixel*Frame) : 0.215
Stream size : 460 MiB (88%)
Writing library : XviD 1.2.1 (UTC 2008-12-04)
Audio #1
ID : 1
Format : MPEG Audio
Format version : Version 1
Format profile : Layer 3
Mode : Joint stereo
Mode extension : MS Stereo
Codec ID : 55
Codec ID/Hint : MP3
Duration : 43mn 22s
Bit rate mode : Constant
Bit rate : 192 Kbps
Channel(s) : 2 channels
Sampling rate : 48.0 KHz
Compression mode : Lossy
Stream size : 59.6 MiB (11%)
Alignment : Split accross interleaves
Interleave, duration : 42 ms (1.00 video frame)
Interleave, preload duration : 500 ms



Внимание! Раздача ведётся путём добавления новых серий; при каждом добавлении создётся новый торрент. Чтобы начать докачку новой серии, пользователям необходимо сделать следующее:

Остановить скачивание.
Удалить старый торрент у себя из клиента (старые серии удалять не надо).
Скачать новый торрент и запустить его у себя в клиенте вместо старого, при этом указать клиенту путь в старую папку куда и должно происходить скачивание новых серий.
Ваш клиент при этом должен произвести хеширование (проверку) старой папки (если не производит сам - помогите ему сделать это), и будет докачивать только те серии которых у вас ещё нет. Старые серии при этом не удаляются, а продолжают раздаваться!
Eсли вы уже удалили старые серии, то предотвратить повторную закачку старых серий можно, отжав галочку в соответсвующих местах при запуске нового торрента. По возможности, желательно не удалять старые серии как можно дольше чтобы релизёр не столько продолжал раздавать старые серии, а смог сконцентрироваться на новых.




   Похожие торренты   Торрент   Размер 
В этой теме нет новых непрочитанных сообщений. Заложники / Hostages [01x01-12 из 15] (2013) WEB-DL 720p

0 | 2

17.17 ГБ

В этой теме нет новых непрочитанных сообщений. Заложники / Hostages [S01] (2013) WEB-DLRip | ViruseProject

3 | 2

7.68 ГБ

В этой теме нет новых непрочитанных сообщений. Заложники / Hostages [S01] (2013) WEB-DLRip | ViruseProject | iPhone

41 | 51

3.49 ГБ

В этой теме нет новых непрочитанных сообщений. Заложники веры (2013) SATRip

90 | 9

268.83 МБ

В этой теме нет новых непрочитанных сообщений. Заложники / Take (2007) BDRip | P

110 | 15

1.46 ГБ

В этой теме нет новых непрочитанных сообщений. Заложники (2010) SATRip

0 | 3

1.37 ГБ

В этой теме нет новых непрочитанных сообщений. Заложники / Under Pressure (1997) DVD5 | A

0 | 2

4.04 ГБ




Вы не можете начинать темы
Вы не можете отвечать на сообщения
Вы не можете редактировать свои сообщения
Вы не можете удалять свои сообщения
Вы не можете добавлять вложения

Перейти:  
Для Мосгорсуда, Роскомнадзора и рекламодателей: mosgorsud-torrent[собачка]yandex.ru
 Вход
ppkBB3cker v.2 © 2008-2014 @ PPK
[ Time : 0.057s | 16 Queries | GZIP : Off ]

Торрент трекер RUTOR.IN, Не можете зайти на rutor.org? Какой новый адрес рутор? Какое зеркало рутор? Не работает rutor.org и зеркала? Тогда наш торрент специально для вас. Rutor.in неофициальное зеркало rutor. В случае если у Вас заблокирован rutor или вдруг Вы не можете на него зайти, то Вы без труда сможете скачать бесплатно и без рекламы последние новинки кино, игр, сериалов и прочего у нас, на Rutor.in. Не нужно использовать прокси, чтобы зайти на рутор, достаточно воспользоваться нашим ресурсом. Все новые фильмы, игры, сериалы, книги и музыка за 2013 и 2014 годы через торрент бесплатно. Скачивайте фильмы в хорошем качестве, игры для пк, xbox, playstation без регистрации. У нас вы найдете новые Зарубежные сериалы и Русские сериалы 2013, 2014, 2015 годов. Оставайтесь с нами, качайте любимые фильмы, игры, сериалы, книги и музыку.