img image001 image001 image001 image001 image001 image001 image001 image001 image001 image001 image001 image001 image001 image001 image001

Planets Sun Sun Sun
Статистика раздачи
Автор: PriZraK | Размер: 4.95 ГБ | Добавлен: 15 фев 2014
Раздают: 26    Качают: 41
Скачать торрент
Скачать торрент
Описание торрента

СообщениеДобавлено: 15 фев 2014 




Информация о фильме
Оригинальное название: Бомба
Год выхода: 2013
Жанр: Мелодрама, боевик, история, драма
Режиссер: Олег Фесенко
В ролях: Ирина Крутик, Алексей Бардуков, Ольга Арнтгольц, Антон Соколов (II), Андрей Панин, Анатолий Кот, Ольга Сутулова, Александр Наумов (II), Антон Соколов (II), Павел Алдошин, Денис Мартынов, Игорь Писный, Владимир Мельник, Андрей Джеджула, Валерий Шалыга, Андрей Кронглевский

О фильме:
1941 год. Жизнь студента физмеха Ленинградского индустриального института круто развернулась за один день, перед самой весенней сессией. Иван Гучков «попал на карандаш» майору Лобанову – начальнику отдела Разведывательного управления Ленинградского военного округа. Несколько месяцев спустя в советское ГРУ поступают сведения, что в США полным ходом идет секретная разработка мощнейшего атомного боеприпаса. Советская разведка принимает решение завербовать Ивана в Неваду на объект «Х» - завод по производству обогащенного урана. Чтобы кандидатура Гучкова не вызывала подозрений, ему меняют не только имя и внешность, но и биографию. Иван перевоплощается в пропавшего без вести курсанта-морпеха Стенли Либера и теперь, будучи объявлен выжившим, он должен жениться на невесте Либера Шейле. Девушка самоотверженно делит с Иваном все его невзгоды и даже решает отправиться с ним в Неваду. Постепенно Иван забывает о собственной невесте Лике, оставшейся в Советском Союзе, да и неизвестно выжила ли она в блокадном Ленинграде. Но жизнь разведчика непредсказуема: Шейлу, а затем Ивана арестовывают и депортируют в Советский Союз. Там Гучкову придется пройти все круги ада, прежде чем приступить к поискам тех, кто ему дорог, и того, что ему нужно.



Страна: Украина
Студия: Star Media
Продолжительность: 8 х ~00:44:00
Перевод: Не требуется

Файл
Формат: AVI
Качество: WEB-DLRip
Видео: XviD, 720x408, ~1800 kbps, 25.000 fps
Звук: AC3, 44.1 KHz, 2 ch, 192 Kbps
Субтитры: Нет

Семпл


Complete name : E:KinoBomba.2013.XviD.WEB-DLRip.GeneralfilmBomba.e07.2013.XviD.WEB-DLRip.Generalfilm.avi
Format : AVI
Format/Info : Audio Video Interleave
File size : 636 MiB
Duration : 44mn 22s
Overall bit rate : 2 003 Kbps
Writing application : VirtualDubMod 1.5.10.3 | www.virtualdub-fr.org || (build 2550/release)
Writing library : VirtualDubMod build 2550/release

Video
ID : 0
Format : MPEG-4 Visual
Format profile : Advanced Simple@L5
Format settings, BVOP : 2
Format settings, QPel : No
Format settings, GMC : No warppoints
Format settings, Matrix : Default (H.263)
Codec ID : XVID
Codec ID/Hint : XviD
Duration : 44mn 22s
Bit rate : 1 802 Kbps
Width : 720 pixels
Height : 408 pixels
Display aspect ratio : 16:9
Frame rate : 25.000 fps
Color space : YUV
Chroma subsampling : 4:2:0
Bit depth : 8 bits
Scan type : Progressive
Compression mode : Lossy
Bits/(Pixel*Frame) : 0.245
Stream size : 572 MiB (90%)
Writing library : XviD 1.2.1 (UTC 2008-12-04)

Audio
ID : 1
Format : AC-3
Format/Info : Audio Coding 3
Mode extension : CM (complete main)
Format settings, Endianness : Big
Codec ID : 2000
Duration : 44mn 22s
Bit rate mode : Constant
Bit rate : 192 Kbps
Channel count : 2 channels
Channel positions : Front: L R
Sampling rate : 44.1 KHz
Bit depth : 16 bits
Compression mode : Lossy
Stream size : 60.9 MiB (10%)
Alignment : Split accross interleaves
Interleave, duration : 40 ms (1.00 video frame)
Interleave, preload duration : 500 ms

Релиз от:



   Похожие торренты   Торрент   Размер 
В этой теме нет новых непрочитанных сообщений. Бомба [01-08 из 08] (2013) WEB-DLRip от Generalfilm | КПК

0 | 5

1.56 ГБ

В этой теме нет новых непрочитанных сообщений. Бомба [01-08 из 08] (2013) WEB-DL 720p от Generalfilm

5 | 4

4.92 ГБ

В этой теме нет новых непрочитанных сообщений. Бомба [01-08 из 08] (2013) WEB-DLRip

17 | 10

4.05 ГБ

В этой теме нет новых непрочитанных сообщений. Бомба [S01] (2013) WEB-DLRip | iPhone

0 | 2

1.91 ГБ

В этой теме нет новых непрочитанных сообщений. Бомба [01-08 из 08] (2013) WEB-DLRip 720p от MegaPeer

3 | 0

6.74 ГБ

В этой теме нет новых непрочитанных сообщений. Раздевающая бомба / Обнаженная Бомба / The Nude Bomb (1980) DVDRip от Youtracker | P

6 | 12

1.43 ГБ

В этой теме нет новых непрочитанных сообщений. Раздевающая бомба / Обнаженная Бомба / The Nude Bomb (1980) DVD9 от Youtracker | P

20 | 1

5.39 ГБ




Вы не можете начинать темы
Вы не можете отвечать на сообщения
Вы не можете редактировать свои сообщения
Вы не можете удалять свои сообщения
Вы не можете добавлять вложения

Перейти:  
Для Мосгорсуда, Роскомнадзора и рекламодателей: mosgorsud-torrent[собачка]yandex.ru
 Вход
ppkBB3cker v.2 © 2008-2014 @ PPK
[ Time : 0.070s | 15 Queries | GZIP : Off ]

cron