img image001 image001 image001 image001 image001 image001 image001 image001 image001 image001 image001 image001 image001 image001 image001

Planets Sun Sun Sun
Статистика раздачи
Автор: PriZraK | Размер: 2.19 ГБ | Добавлен: 15 фев 2014
Раздают: 126    Качают: 13
Скачать торрент
Скачать торрент
Описание торрента

СообщениеДобавлено: 15 фев 2014 




Информация о фильме
Оригинальное название: Алмазы на десерт
Год выхода: 2006
Жанр: Комедия, детектив
Режиссер: Александр Мохов
В ролях: Александр Феклистов, Юрий Беляев, Марина Могилевская, Сергей Баталов, Дарья Калмыкова, Сергей Костылев, Татьяна Маркова, Яна Сексте

О фильме:
Всё дело в алмазах. Их подпольная огранка налажена в провинциальном городке. Криминальный бизнес контролирует хозяин местного ресторана Павел Сергеевич - Павлик. С ним в связке его бывший школьный приятель, милицейский начальник Валерий Петрович - Валера. В свой бизнес Павлик пытается вовлечь и другого бывшего одноклассника, инженера Юрия Владимировича - Ю. В. Таинственное исчезновение, погони, перестрелки, шантаж... В экстремальных обстоятельствах выиграют те, кто больше думает о других, чем о себе.


Страна: Россия
Студия: Группа компаний GP
Продолжительность: 3 х ~ 00:47:19
Язык: Русский

Файл
Кодек: XviD
Качество: DVDRip
Видео: ~ 1750 Кбит/с, 720x400, 25.000 кадр/с
Звук: (АС3, 6 ch, 448 Кбит/с)

Семпл


Общее
Полное имя : Almazy.na.desert.2006.DVDRip.MediaClubAlmazy.na.desert.01.2006.DVDRip.MediaClub.avi
Формат : AVI
Формат/Информация : Audio Video Interleave
Размер файла : 748 Мбайт
Продолжительность : 48 м.
Общий поток : 2137 Кбит/сек
Название фильма : MediaClub
Программа кодирования : VirtualDubMod 1.5.10.2 (build 2540/release)
Библиотека кодирования : VirtualDubMod build 2540/release

Видео
Идентификатор : 0
Формат : MPEG-4 Visual
Профиль формата : Advanced Simple@L5
Параметр BVOP формата : 2
Параметр QPel формата : Нет
Параметр GMC формата : Без точки перехода
Параметр матрицы формата : Default (MPEG)
Идентификатор кодека : XVID
Идентификатор кодека/Подсказка : XviD
Продолжительность : 48 м.
Битрейт : 1680 Кбит/сек
Ширина : 720 пикселей
Высота : 400 пикселей
Соотношение сторон : 16:9
Частота кадров : 25,000 кадров/сек
Цветовое пространство : YUV
Субдискретизация насыщенности : 4:2:0
Битовая глубина : 8 бит
Тип развёртки : Прогрессивная
Метод сжатия : С потерями
Бит/(Пиксели*Кадры) : 0.233
Размер потока : 588 Мбайт (79%)
Библиотека кодирования : XviD 65

Аудио
Идентификатор : 1
Формат : AC-3
Формат/Информация : Audio Coding 3
Идентификатор кодека : 2000
Продолжительность : 48 м.
Вид битрейта : Постоянный
Битрейт : 448 Кбит/сек
Каналы : 6 каналов
Частота : 48,0 КГц
Метод сжатия : С потерями
Размер потока : 157 Мбайт (21%)
Выравнивание : Разделение по промежуткам
Продолжительность промежутка : 40 мс. (1,00 видеокадр)
Время предзагрузки промежутка : 500 мс.

Общее
Полное имя : Almazy.na.desert.2006.DVDRip.MediaClubAlmazy.na.desert.02.2006.DVDRip.MediaClub.avi
Формат : AVI
Формат/Информация : Audio Video Interleave
Размер файла : 748 Мбайт
Продолжительность : 47 м.
Общий поток : 2218 Кбит/сек
Название фильма : MediaClub
Программа кодирования : VirtualDubMod 1.5.10.2 (build 2540/release)
Библиотека кодирования : VirtualDubMod build 2540/release

Видео
Идентификатор : 0
Формат : MPEG-4 Visual
Профиль формата : Advanced Simple@L5
Параметр BVOP формата : 2
Параметр QPel формата : Нет
Параметр GMC формата : Без точки перехода
Параметр матрицы формата : Default (MPEG)
Идентификатор кодека : XVID
Идентификатор кодека/Подсказка : XviD
Продолжительность : 47 м.
Битрейт : 1761 Кбит/сек
Ширина : 720 пикселей
Высота : 400 пикселей
Соотношение сторон : 16:9
Частота кадров : 25,000 кадров/сек
Цветовое пространство : YUV
Субдискретизация насыщенности : 4:2:0
Битовая глубина : 8 бит
Тип развёртки : Прогрессивная
Метод сжатия : С потерями
Бит/(Пиксели*Кадры) : 0.245
Размер потока : 594 Мбайт (79%)
Библиотека кодирования : XviD 65

Аудио
Идентификатор : 1
Формат : AC-3
Формат/Информация : Audio Coding 3
Идентификатор кодека : 2000
Продолжительность : 47 м.
Вид битрейта : Постоянный
Битрейт : 448 Кбит/сек
Каналы : 6 каналов
Частота : 48,0 КГц
Метод сжатия : С потерями
Размер потока : 151 Мбайт (20%)
Выравнивание : Разделение по промежуткам
Продолжительность промежутка : 40 мс. (1,00 видеокадр)
Время предзагрузки промежутка : 500 мс.

Общее
Полное имя : Almazy.na.desert.2006.DVDRip.MediaClubAlmazy.na.desert.03.2006.DVDRip.MediaClub.avi
Формат : AVI
Формат/Информация : Audio Video Interleave
Размер файла : 748 Мбайт
Продолжительность : 47 м.
Общий поток : 2211 Кбит/сек
Название фильма : MediaClub
Программа кодирования : VirtualDubMod 1.5.10.2 (build 2540/release)
Библиотека кодирования : VirtualDubMod build 2540/release

Видео
Идентификатор : 0
Формат : MPEG-4 Visual
Профиль формата : Advanced Simple@L5
Параметр BVOP формата : 2
Параметр QPel формата : Нет
Параметр GMC формата : Без точки перехода
Параметр матрицы формата : Default (MPEG)
Идентификатор кодека : XVID
Идентификатор кодека/Подсказка : XviD
Продолжительность : 47 м.
Битрейт : 1753 Кбит/сек
Ширина : 720 пикселей
Высота : 400 пикселей
Соотношение сторон : 16:9
Частота кадров : 25,000 кадров/сек
Цветовое пространство : YUV
Субдискретизация насыщенности : 4:2:0
Битовая глубина : 8 бит
Тип развёртки : Прогрессивная
Метод сжатия : С потерями
Бит/(Пиксели*Кадры) : 0.243
Размер потока : 593 Мбайт (79%)
Библиотека кодирования : XviD 65

Аудио
Идентификатор : 1
Формат : AC-3
Формат/Информация : Audio Coding 3
Идентификатор кодека : 2000
Продолжительность : 47 м.
Вид битрейта : Постоянный
Битрейт : 448 Кбит/сек
Каналы : 6 каналов
Частота : 48,0 КГц
Метод сжатия : С потерями
Размер потока : 152 Мбайт (20%)
Выравнивание : Разделение по промежуткам
Продолжительность промежутка : 40 мс. (1,00 видеокадр)
Время предзагрузки промежутка : 500 мс.


Релиз от:



   Похожие торренты   Торрент   Размер 
В этой теме нет новых непрочитанных сообщений. Вкусная Дрянь / Смертельный Десерт / The Stuff (1985) BDRemux 1080p от MediaClub | D

32 | 22

23.75 ГБ

В этой теме нет новых непрочитанных сообщений. Смертельный Десерт / The Stuff (1985) DVDRip

3 | 2

1.46 ГБ

В этой теме нет новых непрочитанных сообщений. Алмазы шаха (1992) DVDRip

13 | 9

1.45 ГБ

В этой теме нет новых непрочитанных сообщений. Алмазы ночи / Démanty noci (1964) DVDRip | Sub

14 | 0

666.72 МБ

В этой теме нет новых непрочитанных сообщений. Кровавые алмазы / Diamanti sporchi di sangue (1977) DVDRip

31 | 5

1.52 ГБ

В этой теме нет новых непрочитанных сообщений. Кровавые алмазы / Diamanti sporchi di sangue (1977) DVDRip | L1

32 | 4

1.46 ГБ

В этой теме нет новых непрочитанных сообщений. Проси только алмазы / Just Ask for Diamond (1988) DVDRip | Юрий Сербин

5 | 1

748.59 МБ




Вы не можете начинать темы
Вы не можете отвечать на сообщения
Вы не можете редактировать свои сообщения
Вы не можете удалять свои сообщения
Вы не можете добавлять вложения

Перейти:  
Для Мосгорсуда, Роскомнадзора и рекламодателей: mosgorsud-torrent[собачка]yandex.ru
 Вход
ppkBB3cker v.2 © 2008-2014 @ PPK
[ Time : 0.050s | 16 Queries | GZIP : Off ]

cron