img image001 image001 image001 image001 image001 image001 image001 image001 image001 image001 image001 image001 image001 image001 image001

Planets Sun Sun Sun
Статистика раздачи
Автор: PriZraK | Размер: 2.39 ГБ | Добавлен: 15 фев 2014
Раздают: 360    Качают: 27
Скачать торрент
Скачать торрент
Описание торрента

СообщениеДобавлено: 15 фев 2014 




посмотреть содержание сезонов
Сезон: 13
Название: Пуаро Агаты Кристи
Оригинальное название: Agatha Christie`s Poirot
Год выхода: 2013
Жанр: классический детектив
Режиссер: Эдвард Беннет, Ренни Рай, Эндрю Грив.
В ролях: Дэвид Суше, Барбара Барнс, Доминик Ружье, Аль Фиорентини, Питер Сеттелен.

Описание сериала:
Вы любите настоящий классический детектив со сложной интригой и интеллектуальным расследованием? Если да, то сериал «Пуаро» по произведениям Королевы детектива Агаты Кристи — для Вас. Образ знаменитого литературного героя с невероятными усами и неповторимой походкой великолепно воплощен на экране английским актером Дэвидом Суше. Для . воплощения образа великого сыщика актер проделал колоссальную работу: изучил историю Бельгии, чтобы понять, в какой среде воспитывался и рос его герой, прочел все романы и рассказы, ознакомился со всеми экранизациями, собрал не менее 24 описаний знаменитых усов Пуаро, чтобы найти единственно верный абрис, выработал особую походку и составил список из 93 пунктов, с которым всегда сверялся на съемках, чтобы не допустить оплошность: например, сколько кусков сахара Пуаро кладет в чай, а сколько - в кофе. И эта основательность была оценена по достоинству: сериал «Пуаро» признан лучшей экранизацией романов Агаты Кристи.



Выпущено: Великобритания
Продолжительность: 5x ~00:90:00
Перевод: профессиональный многоголосый

Файл
Кодек: XviD 1.2.1 Final
Качество: HDTVRip
Видео: 688x384, 25 fps, 660 kbps VBR, 16:9
Звук: 32000Hz, 96 kb/s, Joint stereo

Format : AVI
Format/Info : Audio Video Interleave
Overall bit rate : 767 Kbps
Writing application : VirtualDubMod 1.5.10.2 (build 2540/release)
Writing library : VirtualDubMod build 2540/release

Video
ID : 0
Format : MPEG-4 Visual
Format profile : Advanced Simple@L5
Format settings, BVOP : 2
Format settings, QPel : No
Format settings, GMC : No warppoints
Format settings, Matrix : Default (H.263)
Muxing mode : Packed bitstream
Codec ID : XVID
Codec ID/Hint : XviD
Duration : 1h 29mn
Bit rate : 661 Kbps
Width : 688 pixels
Height : 384 pixels
Display aspect ratio : 16:9
Frame rate : 25.000 fps
Color space : YUV
Chroma subsampling : 4:2:0
Bit depth : 8 bits
Scan type : Progressive
Compression mode : Lossy
Bits/(Pixel*Frame) : 0.100
Stream size : 422 MiB (86%)
Writing library : XviD 1.2.1 (UTC 2008-12-04)

Audio
ID : 1
Format : MPEG Audio
Format version : Version 1
Format profile : Layer 3
Mode : Joint stereo
Mode extension : MS Stereo
Codec ID : 55
Codec ID/Hint : MP3
Duration : 1h 29mn
Bit rate mode : Constant
Bit rate : 96.0 Kbps
Channel count : 2 channels
Sampling rate : 32.0 KHz
Compression mode : Lossy
Stream size : 61.3 MiB (13%)
Alignment : Aligned on interleaves
Interleave, duration : 40 ms (1.00 video frame)
Interleave, preload duration : 504 ms





   Похожие торренты   Торрент   Размер 
В этой теме нет новых непрочитанных сообщений. Пуаро Агаты Кристи / Agatha Christie's Poirot [13x01] (2013) HDTVRip 720p

3 | 5

1.12 ГБ

В этой теме нет новых непрочитанных сообщений. Пуаро Агаты Кристи / Agatha Christie's Poirot [13х01-04 из 05] (2013) HDTVRip 720р от opv88

3 | 3

5.58 ГБ

В этой теме нет новых непрочитанных сообщений. Пуаро Агаты Кристи / Agatha Christie's Poirot [S13] (2013) BDRip-AVC от MediaClub | P

232 | 28

11.35 ГБ

В этой теме нет новых непрочитанных сообщений. Пуаро Агаты Кристи / Agatha Christie's Poirot [S01-13] (1989-2013) BDRip

193 | 218

71.21 ГБ

В этой теме нет новых непрочитанных сообщений. Пуаро Агаты Кристи / Agatha Christie's Poirot [S13] (2013) BDRip-AVC 1080p | waPBX

23 | 12

52.1 ГБ

В этой теме нет новых непрочитанных сообщений. Пуаро Агаты Кристи / Agatha Christie's Poirot (1989-2013) [S01-13] BDRip 720p от GYN

46 | 99

245.79 ГБ

В этой теме нет новых непрочитанных сообщений. Пуаро Агаты Кристи / Agatha Christie's Poirot [S13] (2013) BDRip-AVC 720p от waPBX | 50 fps

78 | 8

6.84 ГБ




Вы не можете начинать темы
Вы не можете отвечать на сообщения
Вы не можете редактировать свои сообщения
Вы не можете удалять свои сообщения
Вы не можете добавлять вложения

Перейти:  
Для Мосгорсуда, Роскомнадзора и рекламодателей: mosgorsud-torrent[собачка]yandex.ru
 Вход
ppkBB3cker v.2 © 2008-2014 @ PPK
[ Time : 0.040s | 14 Queries | GZIP : Off ]

Торрент трекер RUTOR.IN, Не можете зайти на rutor.org? Какой новый адрес рутор? Какое зеркало рутор? Не работает rutor.org и зеркала? Тогда наш торрент специально для вас. Rutor.in неофициальное зеркало rutor. В случае если у Вас заблокирован rutor или вдруг Вы не можете на него зайти, то Вы без труда сможете скачать бесплатно и без рекламы последние новинки кино, игр, сериалов и прочего у нас, на Rutor.in. Не нужно использовать прокси, чтобы зайти на рутор, достаточно воспользоваться нашим ресурсом. Все новые фильмы, игры, сериалы, книги и музыка за 2013 и 2014 годы через торрент бесплатно. Скачивайте фильмы в хорошем качестве, игры для пк, xbox, playstation без регистрации. У нас вы найдете новые Зарубежные сериалы и Русские сериалы 2013, 2014, 2015 годов. Оставайтесь с нами, качайте любимые фильмы, игры, сериалы, книги и музыку.