img image001 image001 image001 image001 image001 image001 image001 image001 image001 image001 image001 image001 image001 image001 image001

Planets Sun Sun Sun
Статистика раздачи
Автор: PriZraK | Размер: 11.17 ГБ | Добавлен: 15 фев 2014
Раздают: 24    Качают: 9
Скачать торрент
Скачать торрент
Описание торрента

СообщениеДобавлено: 15 фев 2014 



Информация о фильме
Название: Шерлок
Оригинальное название: Sherlock
Год выпуска: 2014
Жанр: Драма, детектив
Выпущено: Великобритания, Hartswood Films, BBC Wales, Masterpiece Theatre
Режиссер: Пол МакГиган
В ролях: Бенедикт Камбербэтч, Мартин Фриман, Уна Стаббс, Лу Брили, Руперт Грейвз, Марк Гатисс, Зои Телфорд, Винетт Робинсон, Таня Муди, Джонатан Арис

Совместная деятельность Шерлока и Джона подвергается испытанию, когда Джон влюбляется в Мэри Морстен. Она - восприимчивая, умная девушка, и демонстрация Холмсом своих талантов не производит на нее никакого впечатления. После смерти Мориарти, Холмс оказывается втянутым в битву с другим умным противником - могущественным Чарльзом Августом Магнуссеном, который держит в руках секреты всего мира. Для Шерлока и Джона снова начинается игра...


Релиз:

Файл
Качество: DVB
Формат: MPG
Видео: 720x576 @ 1024x576 (16х9) 25.00fps 5 810 Kbps, 0.560 bit/pixel
Аудио: MP3, 48000Hz stereo 160 Кбит/сек
Продолжительность: ~ 01:30:00 / Серия
Перевод: Дублированный (Первый Канал)

General
Complete name : C:2013Sherlock. S03E01 (2013, DVB) (MYDIMKA).mpg
Format : MPEG-PS
File size : 3.68 GiB
Duration : 1h 26mn
Overall bit rate mode : Variable
Overall bit rate : 6 084 Kbps

Video
ID : 224 (0xE0)
Format : MPEG Video
Format version : Version 2
Format profile : Main@Main
Format settings, BVOP : Yes
Format settings, Matrix : Custom
Format settings, GOP : Variable
Duration : 1h 26mn
Bit rate mode : Variable
Bit rate : 5 803 Kbps
Maximum bit rate : 15.0 Mbps
Width : 720 pixels
Height : 576 pixels
Display aspect ratio : 16:9
Frame rate : 25.000 fps
Standard : PAL
Color space : YUV
Chroma subsampling : 4:2:0
Bit depth : 8 bits
Scan type : Interlaced
Scan order : Top Field First
Compression mode : Lossy
Bits/(Pixel*Frame) : 0.560
Time code of first frame : 00:00:00:00
Time code source : Group of pictures header
Stream size : 3.51 GiB (95%)

Audio
ID : 192 (0xC0)
Format : MPEG Audio
Format version : Version 1
Format profile : Layer 2
Duration : 1h 26mn
Bit rate mode : Constant
Bit rate : 160 Kbps
Channel count : 2 channels
Sampling rate : 48.0 KHz
Compression mode : Lossy
Delay relative to video : 23ms
Stream size : 99.0 MiB (3%)



   Похожие торренты   Торрент   Размер 
В этой теме нет новых непрочитанных сообщений. Шерлок / Sherlock [S03] (2014) HDTVRip | Первый канал

184 | 44

4.37 ГБ

В этой теме нет новых непрочитанных сообщений. Шерлок / Sherlock [03x01-02 из 03] (2014) DVB | Первый канал

9 | 11

7.35 ГБ

В этой теме нет новых непрочитанных сообщений. Шерлок / Sherlock [S03] (2014) HDTVRip 720p | Первый канал

207 | 80

3.8 ГБ

В этой теме нет новых непрочитанных сообщений. Шерлок / Sherlock [S01-03] (2010-2014) BDRip | Первый канал

2612 | 1222

12.32 ГБ

В этой теме нет новых непрочитанных сообщений. Шерлок / Sherlock [S03] (2014) HDTVRip-AVC от ExKinoRay | Первый канал

245 | 40

5.04 ГБ

В этой теме нет новых непрочитанных сообщений. Шерлок / Sherlock [S03] (2014) WED-DLRip от Scarabey | Первый канал

66 | 21

4.02 ГБ

В этой теме нет новых непрочитанных сообщений. Шерлок / Sherlock [S03] (2014) WED-DLRip от Scarabey | Первый канал

101 | 23

2.08 ГБ




Вы не можете начинать темы
Вы не можете отвечать на сообщения
Вы не можете редактировать свои сообщения
Вы не можете удалять свои сообщения
Вы не можете добавлять вложения

Перейти:  
Для Мосгорсуда, Роскомнадзора и рекламодателей: mosgorsud-torrent[собачка]yandex.ru
 Вход
ppkBB3cker v.2 © 2008-2014 @ PPK
[ Time : 0.049s | 16 Queries | GZIP : Off ]

cron