img image001 image001 image001 image001 image001 image001 image001 image001 image001 image001 image001 image001 image001 image001 image001

Planets Sun Sun Sun
Статистика раздачи
Автор: PriZraK | Размер: 5.71 ГБ | Добавлен: 15 фев 2014
Раздают: 0    Качают: 3
Скачать торрент
Скачать торрент
Описание торрента

СообщениеДобавлено: 15 фев 2014 




Информация о фильме
Оригинальное название: Убить Сталина
Год выхода: 2013
Жанр: Исторический, война, шпионский детектив
Режиссер: Сергей Гинзбург
В ролях: Александр Домогаров, Михаил Пореченков, Екатерина Вилкова, Павел Трубинер, Андрей Гусев, Василий Мищенко, Игорь Хрипунов, Ярослав Жалнин, Игорь Арташонов, Владимир Юматов, Азамат Нигманов, Адам Булгучев, Дмитрий Гудочкин, Анатолий Дзиваев, Николай Шрайбер, Дмитрий Лавров (III), Алексей Огурцов, Денис Константинов, Евгений Миллер, Максим Лагашкин, Николай Зазуля, Илья Ермолов, Георгий Славский, Александр Никольский (II), Олег Малышев, Руслан Искандаров, Роман Синицын, Артём Федотов, Алла Малкова, Евгений Смирнов-Иваницкий, Валерий Бассэль

О фильме:
Осень 1941-го года. Немецкие полчища докатились до Москвы. Здесь их сдерживают героические усилия советских воинов и рано наступившая морозная зима. Но положение на фронте очень тяжелое, врага едва удается сдерживать. А руководство рейха решает нанести сокрушительный и коварный удар – убить Сталина. Осуществить операцию поручено специальной группе офицеров из команды «Абвера» «Бранденбург-800», которой помогает глубоко внедренный в нашу армию фашистский агент. На пути врага встают умные и смелые сотрудники МГБ СССР…



Страна: Россия
Студия: Star Media
Продолжительность: 8 х ~00:51:00
Перевод: Не требуется

Файл
Формат: AVI
Качество: WEB-DLRip
Видео: XviD, 720x408, ~1800 kbps, 25.000 fps
Звук: AC3, 44.1 KHz, 2 ch, 192 Kbps
Субтитры: Нет

Семпл


General
Complete name : E:KinoUbit.Stalina.2013.XviD.WEB-DLRip.GeneralfilmUbit.Stalina.e05.2013.XviD.WEB-DLRip.Generalfilm.avi
Format : AVI
Format/Info : Audio Video Interleave
File size : 739 MiB
Duration : 51mn 35s
Overall bit rate : 2 004 Kbps
Writing application : VirtualDubMod 1.5.10.3 | www.virtualdub-fr.org || (build 2550/release)
Writing library : VirtualDubMod build 2550/release

Video
ID : 0
Format : MPEG-4 Visual
Format profile : Advanced Simple@L5
Format settings, BVOP : 2
Format settings, QPel : No
Format settings, GMC : No warppoints
Format settings, Matrix : Default (H.263)
Codec ID : XVID
Codec ID/Hint : XviD
Duration : 51mn 35s
Bit rate : 1 802 Kbps
Width : 720 pixels
Height : 408 pixels
Display aspect ratio : 16:9
Frame rate : 25.000 fps
Color space : YUV
Chroma subsampling : 4:2:0
Bit depth : 8 bits
Scan type : Progressive
Compression mode : Lossy
Bits/(Pixel*Frame) : 0.245
Stream size : 665 MiB (90%)
Writing library : XviD 1.2.1 (UTC 2008-12-04)

Audio
ID : 1
Format : AC-3
Format/Info : Audio Coding 3
Mode extension : CM (complete main)
Format settings, Endianness : Big
Codec ID : 2000
Duration : 51mn 35s
Bit rate mode : Constant
Bit rate : 192 Kbps
Channel count : 2 channels
Channel positions : Front: L R
Sampling rate : 44.1 KHz
Bit depth : 16 bits
Compression mode : Lossy
Stream size : 70.8 MiB (10%)
Alignment : Split accross interleaves
Interleave, duration : 40 ms (1.00 video frame)
Interleave, preload duration : 500 ms

Релиз от:



   Похожие торренты   Торрент   Размер 
В этой теме нет новых непрочитанных сообщений. Убить Сталина [01-08 из 08] (2013) WEB-DLRip от Generalfilm | КПК

8 | 19

1.8 ГБ

В этой теме нет новых непрочитанных сообщений. Убить Сталина [01-08 из 08] (2013) SATRip от GeneralFilm

345 | 54

5.67 ГБ

В этой теме нет новых непрочитанных сообщений. Убить Сталина [01-08 из 08] (2013) WEB-DLRip от РиперАМ

61 | 11

4.7 ГБ

В этой теме нет новых непрочитанных сообщений. Убить Сталина [01-08 из 08] (2013) DVDRip от NovaLan

968 | 278

4.31 ГБ

В этой теме нет новых непрочитанных сообщений. Убить Сталина [01-08 из 08] (2013) WEB-DL 1080p от Nikolspup

17 | 5

11.95 ГБ

В этой теме нет новых непрочитанных сообщений. Убить Сталина [01-08 из 08] (2013) WEB-DL 720p от ExKinoRay

81 | 13

5.67 ГБ

В этой теме нет новых непрочитанных сообщений. Убить Сталина [01-08 из 08] (2013) DVD9 от New-Team | Лицензия

140 | 8

7.91 ГБ




Вы не можете начинать темы
Вы не можете отвечать на сообщения
Вы не можете редактировать свои сообщения
Вы не можете удалять свои сообщения
Вы не можете добавлять вложения

Перейти:  
Для Мосгорсуда, Роскомнадзора и рекламодателей: mosgorsud-torrent[собачка]yandex.ru
 Вход
ppkBB3cker v.2 © 2008-2014 @ PPK
[ Time : 0.048s | 15 Queries | GZIP : On ]

Торрент трекер RUTOR.IN, Не можете зайти на rutor.org? Какой новый адрес рутор? Какое зеркало рутор? Не работает rutor.org и зеркала? Тогда наш торрент специально для вас. Rutor.in неофициальное зеркало rutor. В случае если у Вас заблокирован rutor или вдруг Вы не можете на него зайти, то Вы без труда сможете скачать бесплатно и без рекламы последние новинки кино, игр, сериалов и прочего у нас, на Rutor.in. Не нужно использовать прокси, чтобы зайти на рутор, достаточно воспользоваться нашим ресурсом. Все новые фильмы, игры, сериалы, книги и музыка за 2013 и 2014 годы через торрент бесплатно. Скачивайте фильмы в хорошем качестве, игры для пк, xbox, playstation без регистрации. У нас вы найдете новые Зарубежные сериалы и Русские сериалы 2013, 2014, 2015 годов. Оставайтесь с нами, качайте любимые фильмы, игры, сериалы, книги и музыку.