img image001 image001 image001 image001 image001 image001 image001 image001 image001 image001 image001 image001 image001 image001 image001

Planets Sun Sun Sun
Статистика раздачи
Автор: PriZraK | Размер: 10.27 ГБ | Добавлен: 15 фев 2014
Раздают: 54    Качают: 35
Скачать торрент
Скачать торрент
Описание торрента

СообщениеДобавлено: 15 фев 2014 




Информация о фильме
Название: Борджиа (ФГ)
Оригинальное название: Borgia
Год выхода: 2011
Жанр: Историческая драма
Режиссер: Оливер Хиршбигель, Метин Хусейн, Кристоф Шреве
В ролях: Джон Доумен, Изольда Дюшаук, Арт Малик, Дяьрмуид Нойес, Марк Дэвисон, Марта Гастини, Ассумпта Серна, Стэнли Вебер, Андреа Завацки, Виктор Шефе, Андреа Завацки, Николас Бельмонте, Деян Чукич, Ричард Саутгейт, Мирослав Таборски, Джон Брэдли, Карел Добры, Педжа Бьелак

О фильме:
Шокирующий путь восхождения к власти и доминированию одного из самых жестоких и развратных семейств 15 века. Папа Римский Иннокентий VIII на смертном одре. Вице-канцлер Римской церкви Родриго Борджиа шаг за шагом прокладывает путь к престолу. Он имел и многочисленное внебрачное потомство, и в бытность кардиналом в своём дворце сожительствовал со множеством женщин, нажил немало врагов. Но стать новым Папой ему никто не в силах помешать. Разработка франко-германской версии "Borgia" началась на 11 месяцев раньше одноименной драмы от Showtime с Джереми Айронсом и стоили 30 млн. долларов. Съёмки проходили в Чехии. Насилие, обнаженка и крепкое словцо, присущие контенту Canal+, есть и в "Borgia".



Страна: Германия, Франция, Чехия
Продолжительность: 12 x ~00:54:00
Перевод: Профессиональный (многоголосый) [ТК Домашний]

Файл
Формат: AVI
Качество: HDRip
Видео: XviD, 720x408, ~1800 kbps, 25.000 fps
Звук: AC3, 44.1 KHz, 2 ch, 384 Kbps
Субтитры: Нет

Семпл


General
Complete name : E:KinoBordzhiya.FG.S01.2011.XviD.HDRip.GeneralfilmBordzhiya.FG.s01e01.2011.XviD.HDRip.Generalfilm.avi
Format : AVI
Format/Info : Audio Video Interleave
File size : 848 MiB
Duration : 53mn 59s
Overall bit rate : 2 196 Kbps
Writing application : VirtualDubMod 1.5.10.3 | www.virtualdub-fr.org || (build 2550/release)
Writing library : VirtualDubMod build 2550/release

Video
ID : 0
Format : MPEG-4 Visual
Format profile : Advanced Simple@L5
Format settings, BVOP : 2
Format settings, QPel : No
Format settings, GMC : No warppoints
Format settings, Matrix : Default (H.263)
Codec ID : XVID
Codec ID/Hint : XviD
Duration : 53mn 59s
Bit rate : 1 802 Kbps
Width : 720 pixels
Height : 408 pixels
Display aspect ratio : 16:9
Frame rate : 25.000 fps
Color space : YUV
Chroma subsampling : 4:2:0
Bit depth : 8 bits
Scan type : Progressive
Compression mode : Lossy
Bits/(Pixel*Frame) : 0.245
Stream size : 696 MiB (82%)
Writing library : XviD 1.2.1 (UTC 2008-12-04)

Audio
ID : 1
Format : AC-3
Format/Info : Audio Coding 3
Mode extension : CM (complete main)
Format settings, Endianness : Big
Codec ID : 2000
Duration : 53mn 58s
Bit rate mode : Constant
Bit rate : 384 Kbps
Channel count : 2 channels
Channel positions : Front: L R
Sampling rate : 44.1 KHz
Bit depth : 16 bits
Compression mode : Lossy
Stream size : 148 MiB (17%)
Alignment : Split accross interleaves
Interleave, duration : 40 ms (1.00 video frame)
Interleave, preload duration : 500 ms

Релиз от:



   Похожие торренты   Торрент   Размер 
В этой теме нет новых непрочитанных сообщений. Борджиа (ФГ) / Borgia [S01] (2011) HDRip от Generalfilm | КПК

37 | 42

2.88 ГБ

В этой теме нет новых непрочитанных сообщений. Борджиа (ФГ) / Borgia [S03] (2014) HDRip от Generalfilm | SET Russia

434 | 118

8.85 ГБ

В этой теме нет новых непрочитанных сообщений. Борджиа (ФГ) / Borgia [S02] (2013) HDRip от Generalfilm | P | SET Russia

312 | 61

7.59 ГБ

В этой теме нет новых непрочитанных сообщений. Борджиа (ФГ) / Borgia [01x01-12 из 12] (2011) HDRip от Torrent-Xzona | КПК | P

52 | 6

2.71 ГБ

В этой теме нет новых непрочитанных сообщений. Борджиа / The Borgia / Los Borgia (2006) BDRip от HQCLUB

125 | 15

2.91 ГБ

В этой теме нет новых непрочитанных сообщений. Борджиа / Borgia (2011) PC

239 | 9

533.25 МБ

В этой теме нет новых непрочитанных сообщений. Борджиа (ФГ) / Borgia [s01] (2011) BDRip-AVC | Домашний

118 | 145

13.19 ГБ




Вы не можете начинать темы
Вы не можете отвечать на сообщения
Вы не можете редактировать свои сообщения
Вы не можете удалять свои сообщения
Вы не можете добавлять вложения

Перейти:  
Для Мосгорсуда, Роскомнадзора и рекламодателей: mosgorsud-torrent[собачка]yandex.ru
 Вход
ppkBB3cker v.2 © 2008-2014 @ PPK
[ Time : 0.058s | 15 Queries | GZIP : On ]

Торрент трекер RUTOR.IN, Не можете зайти на rutor.org? Какой новый адрес рутор? Какое зеркало рутор? Не работает rutor.org и зеркала? Тогда наш торрент специально для вас. Rutor.in неофициальное зеркало rutor. В случае если у Вас заблокирован rutor или вдруг Вы не можете на него зайти, то Вы без труда сможете скачать бесплатно и без рекламы последние новинки кино, игр, сериалов и прочего у нас, на Rutor.in. Не нужно использовать прокси, чтобы зайти на рутор, достаточно воспользоваться нашим ресурсом. Все новые фильмы, игры, сериалы, книги и музыка за 2013 и 2014 годы через торрент бесплатно. Скачивайте фильмы в хорошем качестве, игры для пк, xbox, playstation без регистрации. У нас вы найдете новые Зарубежные сериалы и Русские сериалы 2013, 2014, 2015 годов. Оставайтесь с нами, качайте любимые фильмы, игры, сериалы, книги и музыку.