img image001 image001 image001 image001 image001 image001 image001 image001 image001 image001 image001 image001 image001 image001 image001

Planets Sun Sun Sun
Статистика раздачи
Автор: PriZraK | Размер: 14.66 ГБ | Добавлен: 15 фев 2014
Раздают: 254    Качают: 126
Скачать торрент
Скачать торрент
Описание торрента

СообщениеДобавлено: 15 фев 2014 



АНОНСЫ МОИХ РИПОВ! Подписываемся!


Реальные пацаны

Год выпуска: 2010
Производство: Россия / Гуд Стори Медиа
Жанр: комедия
Продолжительность: ~00:23:00
Перевод: не требуется
Субтитры: нет

Режиссёр: Жанна Кадникова
В ролях: Николай Наумов (Колян), Антон Богданов (Антоха), Владимир Селиванов (Вован), Станислав Тляшев (Эдик), Зоя Бербер (Лера), Марина Федункив (Марина, мама Коляна), Мария Скорницкая (Машка), Валентина Мазунина (Валя), Армен Бежанян (Армен), Игорь Ознобихин (участковый Игорь Сергеевич), Алексей Базанов (Базанов), Елена Печищева

Описание: Обычный, рядовой российский парень Коля не может определиться между жизнью «на районе» и миром пермской элиты общества. На протяжении всего сериала его ждут увлекательные и смешные истории.



Качество: DVDRip [Исходник DVD9]
Формат: AVI
Видео кодек: XviD
Аудио кодек: MP3
Видео: 640x480 (1.33:1), 25 fps, XviD build 73 ~1636 kbps avg, 0.21 bit/pixel
Аудио: 48 kHz, MPEG Layer 3, 2 ch, ~128.00 kbps avg

Раздача от:


D:Мои рипыРеальные пацаны. Первый и Второй сезон.DVDRip.dexter_lex\01.avi
General
Complete name : D:Мои рипыРеальные пацаны. Первый и Второй сезон.DVDRip.dexter_lex\01.avi
Format : AVI
Format/Info : Audio Video Interleave
File size : 300 MiB
Duration : 23mn 38s
Overall bit rate : 1 775 Kbps
Writing application : VirtualDubMod 1.5.10.3 | www.virtualdub-fr.org || (build 2550/release)
Writing library : VirtualDubMod build 2550/release
Video #0
ID : 0
Format : MPEG-4 Visual
Format profile : Advanced Simple@L5
Format settings, BVOP : 1
Format settings, QPel : No
Format settings, GMC : No warppoints
Format settings, Matrix : Custom
Codec ID : XVID
Codec ID/Hint : XviD
Duration : 23mn 38s
Bit rate : 1 637 Kbps
Width : 640 pixels
Height : 480 pixels
Display aspect ratio : 4:3
Frame rate : 25.000 fps
Color space : YUV
Chroma subsampling : 4:2:0
Bit depth : 8 bits
Scan type : Progressive
Compression mode : Lossy
Bits/(Pixel*Frame) : 0.213
Stream size : 277 MiB (92%)
Writing library : XviD 73
Audio #1
ID : 1
Format : MPEG Audio
Format version : Version 1
Format profile : Layer 3
Codec ID : 55
Codec ID/Hint : MP3
Duration : 23mn 37s
Bit rate mode : Constant
Bit rate : 128 Kbps
Channel(s) : 2 channels
Sampling rate : 48.0 KHz
Compression mode : Lossy
Stream size : 21.6 MiB (7%)
Alignment : Aligned on interleaves
Interleave, duration : 40 ms (1.00 video frame)
Interleave, preload duration : 504 ms
Writing library : LAME3.99r
Encoding settings : -m s -V 4 -q 2 -lowpass 17 -b 128



   Похожие торренты   Торрент   Размер 
В этой теме нет новых непрочитанных сообщений. Реальные пацаны [S01-02x01-41] (2010) DVDRip от FoC

72 | 17

8.27 ГБ

В этой теме нет новых непрочитанных сообщений. Реальные пацаны [S01-02] (2010) DVDRip

0 | 4

11.46 ГБ

В этой теме нет новых непрочитанных сообщений. Реальные пацаны [06х01-16] (2013) WEB-DLRip от New-team

102 | 16

4.7 ГБ

В этой теме нет новых непрочитанных сообщений. Реальные пацаны [05х17-19] (2013) WEB-DLRip от New-team

21 | 9

897.32 МБ

В этой теме нет новых непрочитанных сообщений. Реальные пацаны [05x01-16] (2013) SATRip от New-team

246 | 76

4.68 ГБ

В этой теме нет новых непрочитанных сообщений. Реальные пацаны [04x01-20] (2012) SATRip от New-Team

227 | 38

5.86 ГБ

В этой теме нет новых непрочитанных сообщений. Реальные пацаны. Возвращение [06х01-04] (2014) WEB-DLRip от New-Team

162 | 112

1.17 ГБ




Вы не можете начинать темы
Вы не можете отвечать на сообщения
Вы не можете редактировать свои сообщения
Вы не можете удалять свои сообщения
Вы не можете добавлять вложения

Перейти:  
Для Мосгорсуда, Роскомнадзора и рекламодателей: mosgorsud-torrent[собачка]yandex.ru
 Вход
ppkBB3cker v.2 © 2008-2014 @ PPK
[ Time : 0.054s | 15 Queries | GZIP : Off ]

Торрент трекер RUTOR.IN, Не можете зайти на rutor.org? Какой новый адрес рутор? Какое зеркало рутор? Не работает rutor.org и зеркала? Тогда наш торрент специально для вас. Rutor.in неофициальное зеркало rutor. В случае если у Вас заблокирован rutor или вдруг Вы не можете на него зайти, то Вы без труда сможете скачать бесплатно и без рекламы последние новинки кино, игр, сериалов и прочего у нас, на Rutor.in. Не нужно использовать прокси, чтобы зайти на рутор, достаточно воспользоваться нашим ресурсом. Все новые фильмы, игры, сериалы, книги и музыка за 2013 и 2014 годы через торрент бесплатно. Скачивайте фильмы в хорошем качестве, игры для пк, xbox, playstation без регистрации. У нас вы найдете новые Зарубежные сериалы и Русские сериалы 2013, 2014, 2015 годов. Оставайтесь с нами, качайте любимые фильмы, игры, сериалы, книги и музыку.