img image001 image001 image001 image001 image001 image001 image001 image001 image001 image001 image001 image001 image001 image001 image001

Planets Sun Sun Sun
Статистика раздачи
Автор: PriZraK | Размер: 7.55 ГБ | Добавлен: 15 фев 2014
Раздают: 33    Качают: 11
Скачать торрент
Скачать торрент
Описание торрента

СообщениеДобавлено: 15 фев 2014 




Информация о фильме
Оригинальное название: Название: Черные кошки
Год выхода: 2013
Жанр: Детектив, драма, военный, история
Режиссер: Евгений Лаврентьев
В ролях: Павел Деревянко, Марина Коняшкина, Ольга Ломоносова, Евгений Сидихин, Павел Трубинер, Роман Лукьянов, Алексей Комашко, Михаил Хмуров, Мария Антонова (II), Вадим Норштейн, Богдан Колесник, Сергей Деньга, Виктор Демковский

О фильме:
1947 год. Ростов-на-Дону. В стране, обескровленной войной, царят голод и разруха. Хлеб - в буквальном смысле на вес золота, а стоимость человеческой жизни равняется нулю. Растет число преступлений, появляются бандитские группировки, которые контролируют целые города. Подобно черным кошкам, они появляются незамеченными под покровом ночи, и легко уходят с места преступления. Банда, действующая в Ростове, грабит продовольственный склад, оставляя кровавые следы. Сотрудник уголовного розыска майор Егор Драгун подозревает, что в ней действуют не обычные уголовники. Его подозрения оправдываются: под бандитов, запутывая следы, маскируются бывшие сотрудники вермахта. Их истинная цель - захват известного немецкого ученого, который находится в лагере для военнопленных на территории Ростова-на-Дону. В Германии ученый работал над созданием атомной бомбы. Если вывезти его в Аргентину, куда после войны переместились фашистские группировки, и дать закончить работу, может начаться ядерная война. Цель Драгуна и его подручных - найти и обезвредить преступников. Помощь приходит, откуда не ждали - со стороны настоящих уголовников. Объединившись ради общей цели, они не дадут развязать новую войну.



Страна: Россия
Студия: «Марс Медиа», «Продюсерский центр «ГОРАД», «Студия «Пантократор»
Продолжительность: 12 х ~ 00:44:00
Перевод: Не трбуется

Файл
Формат: AVI
Качество: WEB-DLRip
Видео: XviD, 720x408, ~1800 kbps, 25.000 fps
Звук: AC3, 44.1 KHz, 2 ch, 192 Kbps
Субтитры: Нет

Семпл


General
Complete name : E:KinoChjornye.Koshki.2013.XviD.WEB-DLRip.GeneralfilmChjornye.Koshki.e05.2013.XviD.WEB-DLRip.Generalfilm.avi
Format : AVI
Format/Info : Audio Video Interleave
File size : 639 MiB
Duration : 44mn 33s
Overall bit rate : 2 004 Kbps
Writing application : VirtualDubMod 1.5.10.3 | www.virtualdub-fr.org || (build 2550/release)
Writing library : VirtualDubMod build 2550/release

Video
ID : 0
Format : MPEG-4 Visual
Format profile : Advanced Simple@L5
Format settings, BVOP : 2
Format settings, QPel : No
Format settings, GMC : No warppoints
Format settings, Matrix : Default (H.263)
Codec ID : XVID
Codec ID/Hint : XviD
Duration : 44mn 33s
Bit rate : 1 802 Kbps
Width : 720 pixels
Height : 408 pixels
Display aspect ratio : 16:9
Frame rate : 25.000 fps
Color space : YUV
Chroma subsampling : 4:2:0
Bit depth : 8 bits
Scan type : Progressive
Compression mode : Lossy
Bits/(Pixel*Frame) : 0.245
Stream size : 574 MiB (90%)
Writing library : XviD 1.2.1 (UTC 2008-12-04)

Audio
ID : 1
Format : AC-3
Format/Info : Audio Coding 3
Mode extension : CM (complete main)
Format settings, Endianness : Big
Codec ID : 2000
Duration : 44mn 33s
Bit rate mode : Constant
Bit rate : 192 Kbps
Channel count : 2 channels
Channel positions : Front: L R
Sampling rate : 44.1 KHz
Bit depth : 16 bits
Compression mode : Lossy
Stream size : 61.2 MiB (10%)
Alignment : Split accross interleaves
Interleave, duration : 40 ms (1.00 video frame)
Interleave, preload duration : 500 ms

Релиз от:



   Похожие торренты   Торрент   Размер 
В этой теме нет новых непрочитанных сообщений. Черные кошки [01-12 из 12] (2013) WEB-DLRip от Generalfilm | КПК

149 | 38

2.37 ГБ

В этой теме нет новых непрочитанных сообщений. Черные кошки [01-12 из 12] (2013) SATRip от GeneralFilm

1220 | 386

6.66 ГБ

В этой теме нет новых непрочитанных сообщений. Черные кошки [01-12 из 12] (2013) WEB-DLRip

14 | 4

7.73 ГБ

В этой теме нет новых непрочитанных сообщений. Черные кошки [01-12 из 12] (2013) WEB-DLRip | iPhone

2 | 5

2.91 ГБ

В этой теме нет новых непрочитанных сообщений. Черные кошки [01-12 из 12] (2013) WEB-DL 1080p от Nikolspup

70 | 20

15.8 ГБ

В этой теме нет новых непрочитанных сообщений. Черные кошки [01-12 из 12] (2013) WEB-DL 720p от Nikolspup

113 | 35

7.48 ГБ

В этой теме нет новых непрочитанных сообщений. Черные кошки [01-12 из 12] (2013) DVDRip от New-Team | лицензия

622 | 390

8.15 ГБ




Вы не можете начинать темы
Вы не можете отвечать на сообщения
Вы не можете редактировать свои сообщения
Вы не можете удалять свои сообщения
Вы не можете добавлять вложения

Перейти:  
Для Мосгорсуда, Роскомнадзора и рекламодателей: mosgorsud-torrent[собачка]yandex.ru
 Вход
ppkBB3cker v.2 © 2008-2014 @ PPK
[ Time : 0.061s | 15 Queries | GZIP : Off ]

cron