img image001 image001 image001 image001 image001 image001 image001 image001 image001 image001 image001 image001 image001 image001 image001

Planets Sun Sun Sun
Статистика раздачи
Автор: PriZraK | Размер: 6.87 ГБ | Добавлен: 15 фев 2014
Раздают: 590    Качают: 52
Скачать торрент
Скачать торрент
Описание торрента

СообщениеДобавлено: 15 фев 2014 




Страна: Россия / Кинокомпания Леман, Марс Медиа Энтертейнмент
Жанр: драма, военный
Год выпуска: 2012
Продолжительность: 8 x ~00:50:00

Перевод: не требуется
Cубтитры: нет
Оригинальная аудиодорожка: русский

Режиссер: Зиновий Ройзман

В ролях: Татьяна Арнтгольц, Вольфганг Черны, Александр Устюгов, Андреас Хельги Шмид, Юрий Назаров, Дмитрий Быковский-Ромашов, Валерия Ланская, Светлана Устинова, Сергей Марин, Светлана Смирнова-Кацагаджиева...

Описание: Познакомились советская десятиклассница Катя со своим сверстником немцем Александром. И возникло между ними чувство, помешать которому, казалось, ничто не могло. Шел 39-й год, был подписан известный пакт о ненападении между Германией и Россией. А потом началась война... Наши герои встречаются в 43-ем по разные стороны баррикад в Днепропетровске. Немцы заминировали там гидроэлектростанцию. Задачей советских воинов было ее разминировать. И с той, и с другой стороны дежурили снайперы - нашу группу возглавляла Катя, немецкую - Александр. Что же случилось дальше? Победит ли Любовь?..



Качество: DVDRip (2 x DVD9 R5)
Формат: AVI

Видео: 720x400 (16:9), 25.000 fps, XViD ~ 2000 kbps avg, 0.278 bit/pixel
Аудио: 48 kHz, АС3 6 ch, 448 kbps, русский

Раздача от:
Общее
Полное имя : Snaypery.lubov.pod.pritselom.2012.O.DVDRip_[New-Team]_by_avproh1.avi
Формат : AVI
Формат/Информация : Audio Video Interleave
Размер файла : 884 Мбайт
Продолжительность : 50 м.
Общий поток : 2457 Кбит/сек
Программа кодирования : VirtualDubMod 1.5.10.3 | www.virtualdub-fr.org || (build 2550/release)
Библиотека кодирования : VirtualDubMod build 2550/release

Видео
Идентификатор : 0
Формат : MPEG-4 Visual
Профиль формата : Advanced Simple@L5
Параметр BVOP формата : 1
Параметр QPel формата : Нет
Параметр GMC формата : Без точки перехода
Параметр матрицы формата : Выборочная
Идентификатор кодека : XVID
Идентификатор кодека/Подсказка : XviD
Продолжительность : 50 м.
Битрейт : 2000 Кбит/сек
Ширина : 720 пикселей
Высота : 400 пикселей
Соотношение сторон : 16:9
Частота кадров : 25,000 кадров/сек
Цветовое пространство : YUV
Субдискретизация насыщенности : 4:2:0
Битовая глубина : 8 бит
Тип развёртки : Прогрессивная
Метод сжатия : С потерями
Бит/(Пиксели*Кадры) : 0.278
Размер потока : 720 Мбайт (81%)
Библиотека кодирования : XviD 73

Аудио
Идентификатор : 1
Формат : AC-3
Формат/Информация : Audio Coding 3
Расширение режима : CM (complete main)
Параметр Endianness формата : Big
Идентификатор кодека : 2000
Продолжительность : 50 м.
Вид битрейта : Постоянный
Битрейт : 448 Кбит/сек
Каналы : 6 каналов
Расположение каналов : Front: L C R, Side: L R, LFE
Частота : 48,0 КГц
Битовая глубина : 16 бит
Метод сжатия : С потерями
Размер потока : 161 Мбайт (18%)
Выравнивание : Разделение по промежуткам
Продолжительность промежутка : 40 мс. (1,00 видеокадр)
Время предзагрузки промежутка : 500 мс.






   Похожие торренты   Торрент   Размер 
В этой теме нет новых непрочитанных сообщений. Снайперы: Любовь под прицелом [01-08 из 08] (2012) DVDRip-AVC от New-Team | лицензия

45 | 13

6.86 ГБ

В этой теме нет новых непрочитанных сообщений. Снайперы: Любовь под прицелом [01-08 из 08] (2012) 2xDVD9 R5 от New-Team | лицензия

0 | 4

15.57 ГБ

В этой теме нет новых непрочитанных сообщений. Снайперы: Любовь под прицелом [01-08 из 08] (2012) WEB-DL 1080p

84 | 25

11.71 ГБ

В этой теме нет новых непрочитанных сообщений. Снайперы: Любовь под прицелом [01-08 из 08] (2012) SATRip

146 | 9

4.69 ГБ

В этой теме нет новых непрочитанных сообщений. Снайперы (1985) VHSRip от New-Team

173 | 7

745.95 МБ

В этой теме нет новых непрочитанных сообщений. Снайперы (1985) VHSRip-AVC от New-Team

155 | 14

1.09 ГБ

В этой теме нет новых непрочитанных сообщений. Нереальная любовь (2014) DVDRip от New-Team | лицензия

4826 | 734

1.46 ГБ




Вы не можете начинать темы
Вы не можете отвечать на сообщения
Вы не можете редактировать свои сообщения
Вы не можете удалять свои сообщения
Вы не можете добавлять вложения

Перейти:  
Для Мосгорсуда, Роскомнадзора и рекламодателей: mosgorsud-torrent[собачка]yandex.ru
 Вход
ppkBB3cker v.2 © 2008-2014 @ PPK
[ Time : 0.085s | 16 Queries | GZIP : Off ]

Торрент трекер RUTOR.IN, Не можете зайти на rutor.org? Какой новый адрес рутор? Какое зеркало рутор? Не работает rutor.org и зеркала? Тогда наш торрент специально для вас. Rutor.in неофициальное зеркало rutor. В случае если у Вас заблокирован rutor или вдруг Вы не можете на него зайти, то Вы без труда сможете скачать бесплатно и без рекламы последние новинки кино, игр, сериалов и прочего у нас, на Rutor.in. Не нужно использовать прокси, чтобы зайти на рутор, достаточно воспользоваться нашим ресурсом. Все новые фильмы, игры, сериалы, книги и музыка за 2013 и 2014 годы через торрент бесплатно. Скачивайте фильмы в хорошем качестве, игры для пк, xbox, playstation без регистрации. У нас вы найдете новые Зарубежные сериалы и Русские сериалы 2013, 2014, 2015 годов. Оставайтесь с нами, качайте любимые фильмы, игры, сериалы, книги и музыку.
cron