img image001 image001 image001 image001 image001 image001 image001 image001 image001 image001 image001 image001 image001 image001 image001

Planets Sun Sun Sun
Статистика раздачи
Автор: PriZraK | Размер: 6.86 ГБ | Добавлен: 15 фев 2014
Раздают: 50    Качают: 18
Скачать торрент
Скачать торрент
Описание торрента

СообщениеДобавлено: 15 фев 2014 




Страна: Россия / Кинокомпания Леман, Марс Медиа Энтертейнмент
Жанр: драма, военный
Год выпуска: 2012
Продолжительность: 8 x ~00:50:00

Перевод: не требуется
Cубтитры: нет
Оригинальная аудиодорожка: русский

Режиссер: Зиновий Ройзман

В ролях: Татьяна Арнтгольц, Вольфганг Черны, Александр Устюгов, Андреас Хельги Шмид, Юрий Назаров, Дмитрий Быковский-Ромашов, Валерия Ланская, Светлана Устинова, Сергей Марин, Светлана Смирнова-Кацагаджиева...

Описание: Познакомились советская десятиклассница Катя со своим сверстником немцем Александром. И возникло между ними чувство, помешать которому, казалось, ничто не могло. Шел 39-й год, был подписан известный пакт о ненападении между Германией и Россией. А потом началась война... Наши герои встречаются в 43-ем по разные стороны баррикад в Днепропетровске. Немцы заминировали там гидроэлектростанцию. Задачей советских воинов было ее разминировать. И с той, и с другой стороны дежурили снайперы - нашу группу возглавляла Катя, немецкую - Александр. Что же случилось дальше? Победит ли Любовь?..



Качество: DVDRip-AVC (2 x DVD9 R5)
Формат: MKV

Видео: 720x572@1024x572 (16:9), 25.000 fps, H264 ~ 2006 kbps avg, 0.195 bit/pixel
Аудио: 48 kHz, АС3 6 ch, 448 kbps, русский

Раздача от:
Общее
Полное имя : Snaypery.lubov.pod.pritselom.2012.O.DVDRip-AVC_[New-Team]_by_avproh1.mkv
Формат : Matroska
Версия формата : Version 2
Размер файла : 884 Мбайт
Продолжительность : 50 м.
Общий поток : 2455 Кбит/сек
Дата кодирования : UTC 2014-01-22 04:22:37
Программа кодирования : mkvmerge v6.1.0 ('Old Devil') built on Mar 4 2013 09:10:42
Библиотека кодирования : libebml v1.3.0 + libmatroska v1.4.0

Видео
Идентификатор : 1
Формат : AVC
Формат/Информация : Advanced Video Codec
Профиль формата : High@L4.1
Параметр CABAC формата : Да
Параметр ReFrames формата : 6 кадров
Идентификатор кодека : V_MPEG4/ISO/AVC
Продолжительность : 50 м.
Битрейт : 2006 Кбит/сек
Ширина : 720 пикселей
Высота : 572 пикселя
Соотношение сторон : 16:9
Режим частоты кадров : Постоянный
Частота кадров : 25,000 кадров/сек
Цветовое пространство : YUV
Субдискретизация насыщенности : 4:2:0
Битовая глубина : 8 бит
Тип развёртки : Прогрессивная
Бит/(Пиксели*Кадры) : 0.195
Размер потока : 705 Мбайт (80%)
Библиотека кодирования : x264 core 138 r2356 a1d3d17
Настройки программы : cabac=1 / ref=6 / deblock=1:-2:-1 / analyse=0x3:0x113 / me=umh / subme=10 / psy=1 / psy_rd=1.00:0.05 / mixed_ref=1 / me_range=32 / chroma_me=1 / trellis=2 / 8x8dct=1 / cqm=0 / deadzone=21,11 / fast_pskip=0 / chroma_qp_offset=-3 / threads=9 / lookahead_threads=1 / sliced_threads=0 / nr=0 / decimate=0 / interlaced=0 / bluray_compat=0 / constrained_intra=0 / bframes=8 / b_pyramid=2 / b_adapt=2 / b_bias=0 / direct=3 / weightb=1 / open_gop=0 / weightp=2 / keyint=250 / keyint_min=25 / scenecut=40 / intra_refresh=0 / rc=2pass / mbtree=0 / bitrate=2006 / ratetol=1.0 / qcomp=0.60 / qpmin=0 / qpmax=69 / qpstep=4 / cplxblur=20.0 / qblur=0.5 / ip_ratio=1.40 / pb_ratio=1.30 / aq=1:1.00
Default : Да
Forced : Нет

Аудио
Идентификатор : 2
Формат : AC-3
Формат/Информация : Audio Coding 3
Расширение режима : CM (complete main)
Параметр Endianness формата : Big
Идентификатор кодека : A_AC3
Продолжительность : 50 м.
Вид битрейта : Постоянный
Битрейт : 448 Кбит/сек
Каналы : 6 каналов
Расположение каналов : Front: L C R, Side: L R, LFE
Частота : 48,0 КГц
Битовая глубина : 16 бит
Метод сжатия : С потерями
Размер потока : 161 Мбайт (18%)
Default : Да
Forced : Нет





   Похожие торренты   Торрент   Размер 
В этой теме нет новых непрочитанных сообщений. Снайперы: Любовь под прицелом [01-08 из 08] (2012) DVDRip от New-Team | лицензия

601 | 59

6.87 ГБ

В этой теме нет новых непрочитанных сообщений. Снайперы: Любовь под прицелом [01-08 из 08] (2012) 2xDVD9 R5 от New-Team | лицензия

0 | 5

15.57 ГБ

В этой теме нет новых непрочитанных сообщений. Снайперы: Любовь под прицелом [01-08 из 08] (2012) WEB-DL 1080p

84 | 25

11.71 ГБ

В этой теме нет новых непрочитанных сообщений. Снайперы: Любовь под прицелом [01-08 из 08] (2012) SATRip

146 | 9

4.69 ГБ

В этой теме нет новых непрочитанных сообщений. Снайперы (1985) VHSRip от New-Team

181 | 9

745.95 МБ

В этой теме нет новых непрочитанных сообщений. Снайперы (1985) VHSRip-AVC от New-Team

166 | 14

1.09 ГБ

В этой теме нет новых непрочитанных сообщений. Нереальная любовь (2014) DVDRip-AVC от New-Team | лицензия

1730 | 311

1.45 ГБ




Вы не можете начинать темы
Вы не можете отвечать на сообщения
Вы не можете редактировать свои сообщения
Вы не можете удалять свои сообщения
Вы не можете добавлять вложения

Перейти:  
Для Мосгорсуда, Роскомнадзора и рекламодателей: mosgorsud-torrent[собачка]yandex.ru
 Вход
ppkBB3cker v.2 © 2008-2014 @ PPK
[ Time : 0.026s | 15 Queries | GZIP : Off ]

Торрент трекер RUTOR.IN, Не можете зайти на rutor.org? Какой новый адрес рутор? Какое зеркало рутор? Не работает rutor.org и зеркала? Тогда наш торрент специально для вас. Rutor.in неофициальное зеркало rutor. В случае если у Вас заблокирован rutor или вдруг Вы не можете на него зайти, то Вы без труда сможете скачать бесплатно и без рекламы последние новинки кино, игр, сериалов и прочего у нас, на Rutor.in. Не нужно использовать прокси, чтобы зайти на рутор, достаточно воспользоваться нашим ресурсом. Все новые фильмы, игры, сериалы, книги и музыка за 2013 и 2014 годы через торрент бесплатно. Скачивайте фильмы в хорошем качестве, игры для пк, xbox, playstation без регистрации. У нас вы найдете новые Зарубежные сериалы и Русские сериалы 2013, 2014, 2015 годов. Оставайтесь с нами, качайте любимые фильмы, игры, сериалы, книги и музыку.