img image001 image001 image001 image001 image001 image001 image001 image001 image001 image001 image001 image001 image001 image001 image001

Planets Sun Sun Sun
Статистика раздачи
Автор: PriZraK | Размер: 11.75 ГБ | Добавлен: 15 фев 2014
Раздают: 91    Качают: 20
Скачать торрент
Скачать торрент
Описание торрента

СообщениеДобавлено: 15 фев 2014 



Информация о фильме
Название: Шерлок
Оригинальное название: Sherlock
Год выпуска: 2014
Жанр: Драма, детектив
Выпущено: Великобритания, Hartswood Films, BBC Wales, Masterpiece Theatre
Режиссер: Пол МакГиган
В ролях: Бенедикт Камбербэтч, Мартин Фриман, Уна Стаббс, Лу Брили, Руперт Грейвз, Марк Гатисс, Зои Телфорд, Винетт Робинсон, Таня Муди, Джонатан Арис

Совместная деятельность Шерлока и Джона подвергается испытанию, когда Джон влюбляется в Мэри Морстен. Она - восприимчивая, умная девушка, и демонстрация Холмсом своих талантов не производит на нее никакого впечатления. После смерти Мориарти, Холмс оказывается втянутым в битву с другим умным противником - могущественным Чарльзом Августом Магнуссеном, который держит в руках секреты всего мира. Для Шерлока и Джона снова начинается игра...


3 сезон
01. Пустой гроб / The Empty Hearse
02. Знак трех / The Sign of Three
03. Последняя клятва / His Last Vow

Релиз -

Файл
Качество: HDTV 1080i
Видео: MPEG-4 AVC, ~ 6000 Кбит/с, 1920x1080
Аудио: МР2, 2 ch, 256 Кбит/с
Продолжительность: ~ 01:30:00 / Серия
Перевод: Дублированный (Первый Канал)

Общее
Идентификатор : 1 (0x1)
Полное имя : D:Sherlok.(3.sezon).2014.x264.HDTV.1080i.NikolspupSherlok.(3.sezony.1.seriya.iz.3).2014.x264.HDTV.1080i.Nikolspup.ts
Формат : MPEG-TS
Размер файла : 3,86 Гбайт
Продолжительность : 1 ч. 26 м.
Режим общего битрейта : Переменный
Общий поток : 6391 Кбит/сек
Максимальный общий битрейт : 35,5 Мбит/сек

Видео
Идентификатор : 4113 (0x1011)
Идентификатор меню : 1 (0x1)
Формат : AVC
Формат/Информация : Advanced Video Codec
Профиль формата : High@L4.1
Параметр CABAC формата : Да
Параметр ReFrames формата : 3 кадра
Идентификатор кодека : 27
Продолжительность : 1 ч. 26 м.
Вид битрейта : Переменный
Битрейт : 5817 Кбит/сек
Максимальный битрейт : 40,0 Мбит/сек
Ширина : 1920 пикселей
Высота : 1080 пикселей
Соотношение сторон : 16:9
Частота кадров : 25,000 кадров/сек
Цветовое пространство : YUV
Субдискретизация насыщенности : 4:2:0
Битовая глубина : 8 бит
Тип развёртки : Прогрессивная
Бит/(Пиксели*Кадры) : 0.112
Размер потока : 3,52 Гбайт (91%)

Аудио
Идентификатор : 4352 (0x1100)
Идентификатор меню : 1 (0x1)
Формат : MPEG Audio
Версия формата : Version 1
Профиль формата : Layer 2
Идентификатор кодека : 4
Продолжительность : 1 ч. 26 м.
Вид битрейта : Постоянный
Битрейт : 256 Кбит/сек
Каналы : 2 канала
Частота : 48,0 КГц
Метод сжатия : С потерями
Размер потока : 159 Мбайт (4%)



   Похожие торренты   Торрент   Размер 
В этой теме нет новых непрочитанных сообщений. Шерлок / Sherlock [S01-03x01-08] (2010-2014) HDTV 1080i от MediaClub | Первый канал

103 | 91

31.57 ГБ

В этой теме нет новых непрочитанных сообщений. Шерлок / Sherlock 04х00-01 из 04 (2015-2016) HDTV 1080i от MediaClub | Первый канал | Sub

41 | 42

10.74 ГБ

В этой теме нет новых непрочитанных сообщений. Шерлок / Sherlock [04x01 из 03] (2017) HDTV 1080i от ExKinoRay | Первый канал | Локализованная версия

286 | 6

5.07 ГБ

В этой теме нет новых непрочитанных сообщений. Шерлок / Sherlock [04x00-02 из 03] (2017) HDTV 1080i от MediaClub | Первый канал | Локализованная версия

42 | 49

16.27 ГБ

В этой теме нет новых непрочитанных сообщений. Шерлок / Sherlock [04x01-02 из 03] (2017) HDTV 1080i от ExKinoRay | Первый канал | Локализованная версия

144 | 181

9.5 ГБ

В этой теме нет новых непрочитанных сообщений. Шерлок : Безобразная невеста / Sherlock: The Abominable Bride (2015) HDTV 1080i от MediaClub | Первый канал | Sub

3552 | 43

5.22 ГБ

В этой теме нет новых непрочитанных сообщений. Шерлок / Sherlock [04x03] (2017) WEBRip 1080i от Phoenix-SHADOW | Первый канал | Локализованная версия

831 | 7

3.28 ГБ




Вы не можете начинать темы
Вы не можете отвечать на сообщения
Вы не можете редактировать свои сообщения
Вы не можете удалять свои сообщения
Вы не можете добавлять вложения

Перейти:  
Для Мосгорсуда, Роскомнадзора и рекламодателей: mosgorsud-torrent[собачка]yandex.ru
 Вход
ppkBB3cker v.2 © 2008-2014 @ PPK
[ Time : 1.476s | 15 Queries | GZIP : Off ]

Торрент трекер RUTOR.IN, Не можете зайти на rutor.org? Какой новый адрес рутор? Какое зеркало рутор? Не работает rutor.org и зеркала? Тогда наш торрент специально для вас. Rutor.in неофициальное зеркало rutor. В случае если у Вас заблокирован rutor или вдруг Вы не можете на него зайти, то Вы без труда сможете скачать бесплатно и без рекламы последние новинки кино, игр, сериалов и прочего у нас, на Rutor.in. Не нужно использовать прокси, чтобы зайти на рутор, достаточно воспользоваться нашим ресурсом. Все новые фильмы, игры, сериалы, книги и музыка за 2013 и 2014 годы через торрент бесплатно. Скачивайте фильмы в хорошем качестве, игры для пк, xbox, playstation без регистрации. У нас вы найдете новые Зарубежные сериалы и Русские сериалы 2013, 2014, 2015 годов. Оставайтесь с нами, качайте любимые фильмы, игры, сериалы, книги и музыку.