img image001 image001 image001 image001 image001 image001 image001 image001 image001 image001 image001 image001 image001 image001 image001

Planets Sun Sun Sun
Статистика раздачи
Автор: PriZraK | Размер: 6.38 ГБ | Добавлен: 15 фев 2014
Раздают: 1434    Качают: 155
Скачать торрент
Скачать торрент
Описание торрента

СообщениеДобавлено: 15 фев 2014 




Страна: Россия / Star Media
Жанр: история, документальный
Год выпуска: 2013
Продолжительность: 8 x ~00:52:00

Перевод: не требуется
Cубтитры: нет
Оригинальная аудиодорожка: русский

Режиссер: Максим Беспалый

В ролях: Людмила Гамуряк, Андрей Бестужев, Кирилл Искратов, Андрей Домнин, Ольга Равинская, Ирина Агейкина, Илья Щербинин, Анастасия Миляева, Владимир Демидов, Дмитрий Бедарев...

Описание: Уникальный по форме проект, приуроченным к 400-летию воцарения на Руси дома Романовых, который сочетает в себе элементы и игрового, и документального кино, информационной графики и анимации. История расскажет о том, что представляло собой русское самодержавие как система управления, каковы ее недостатки и преимущества, какую роль монархи дома Романовых играли в событиях российской и мировой истории. При помощи графики создается максимально исторически-достоверная картина, которая погружает зрителя в атмосферу и ощущение времени и позволяет увидеть царя глазами современников.



Качество: DVDRip (2 x DVD9 R5)
Формат: AVI

Видео: 720x400 (16:9), 25.000 fps, XViD ~ 2000 kbps avg, 0.278 bit/pixel
Аудио: 48 kHz, АС3 2 ch, 192 kbps, русский

Раздача от:
Общее
Полное имя : Romanovy.2013.O.DVDRip_[New-Team]_by_avproh1.avi
Формат : AVI
Формат/Информация : Audio Video Interleave
Размер файла : 812 Мбайт
Продолжительность : 51 м.
Общий поток : 2202 Кбит/сек
Программа кодирования : VirtualDubMod 1.5.10.3 | www.virtualdub-fr.org || (build 2550/release)
Библиотека кодирования : VirtualDubMod build 2550/release

Видео
Идентификатор : 0
Формат : MPEG-4 Visual
Профиль формата : Advanced Simple@L5
Параметр BVOP формата : 1
Параметр QPel формата : Нет
Параметр GMC формата : Без точки перехода
Параметр матрицы формата : Выборочная
Идентификатор кодека : XVID
Идентификатор кодека/Подсказка : XviD
Продолжительность : 51 м.
Битрейт : 2000 Кбит/сек
Ширина : 720 пикселей
Высота : 400 пикселей
Соотношение сторон : 16:9
Частота кадров : 25,000 кадров/сек
Цветовое пространство : YUV
Субдискретизация насыщенности : 4:2:0
Битовая глубина : 8 бит
Тип развёртки : Прогрессивная
Метод сжатия : С потерями
Бит/(Пиксели*Кадры) : 0.278
Размер потока : 738 Мбайт (91%)
Библиотека кодирования : XviD 73

Аудио
Идентификатор : 1
Формат : AC-3
Формат/Информация : Audio Coding 3
Расширение режима : CM (complete main)
Параметр Endianness формата : Big
Идентификатор кодека : 2000
Продолжительность : 51 м.
Вид битрейта : Постоянный
Битрейт : 192 Кбит/сек
Каналы : 2 канала
Расположение каналов : Front: L R
Частота : 48,0 КГц
Битовая глубина : 16 бит
Метод сжатия : С потерями
Размер потока : 70,8 Мбайт (9%)
Выравнивание : Разделение по промежуткам
Продолжительность промежутка : 40 мс. (1,00 видеокадр)
Время предзагрузки промежутка : 500 мс.






   Похожие торренты   Торрент   Размер 
В этой теме нет новых непрочитанных сообщений. Романовы [01-08 из 08] (2013) DVDRip-AVC от New-Team | лицензия

120 | 26

6.37 ГБ

В этой теме нет новых непрочитанных сообщений. Романовы [01-08 из 08] (2013) 2 х DVD-9

12 | 6

15.62 ГБ

В этой теме нет новых непрочитанных сообщений. Романовы [01-08 из 08] (2013) WEB-DLRip-AVC

169 | 23

7.2 ГБ

В этой теме нет новых непрочитанных сообщений. Романовы [01-08 из 08] (2013) WEB-DLRip

172 | 75

4.68 ГБ

В этой теме нет новых непрочитанных сообщений. Романовы [01-08 из 08] (2013) WEB-DL 1080p от Nikolspup

170 | 30

9.73 ГБ

В этой теме нет новых непрочитанных сообщений. Романовы. Венценосная Семья (2000) DVDRip

186 | 16

1.37 ГБ

В этой теме нет новых непрочитанных сообщений. Романовы. Царское дело [01-05 из 05] (2013) HDTVRip от MediaClub

103 | 25

3.86 ГБ




Вы не можете начинать темы
Вы не можете отвечать на сообщения
Вы не можете редактировать свои сообщения
Вы не можете удалять свои сообщения
Вы не можете добавлять вложения

Перейти:  
Для Мосгорсуда, Роскомнадзора и рекламодателей: mosgorsud-torrent[собачка]yandex.ru
 Вход
ppkBB3cker v.2 © 2008-2014 @ PPK
[ Time : 0.890s | 16 Queries | GZIP : Off ]

Торрент трекер RUTOR.IN, Не можете зайти на rutor.org? Какой новый адрес рутор? Какое зеркало рутор? Не работает rutor.org и зеркала? Тогда наш торрент специально для вас. Rutor.in неофициальное зеркало rutor. В случае если у Вас заблокирован rutor или вдруг Вы не можете на него зайти, то Вы без труда сможете скачать бесплатно и без рекламы последние новинки кино, игр, сериалов и прочего у нас, на Rutor.in. Не нужно использовать прокси, чтобы зайти на рутор, достаточно воспользоваться нашим ресурсом. Все новые фильмы, игры, сериалы, книги и музыка за 2013 и 2014 годы через торрент бесплатно. Скачивайте фильмы в хорошем качестве, игры для пк, xbox, playstation без регистрации. У нас вы найдете новые Зарубежные сериалы и Русские сериалы 2013, 2014, 2015 годов. Оставайтесь с нами, качайте любимые фильмы, игры, сериалы, книги и музыку.