img image001 image001 image001 image001 image001 image001 image001 image001 image001 image001 image001 image001 image001 image001 image001

Planets Sun Sun Sun
Статистика раздачи
Автор: PriZraK | Размер: 612.33 МБ | Добавлен: 15 фев 2014
Раздают: 5    Качают: 7
Скачать торрент
Скачать торрент
Описание торрента

СообщениеДобавлено: 15 фев 2014 




Название: Семейные узы
Оригинальное название: Family Ties
Год выпуска: 1982
Страна: США
Жанр: комедия, семейный
Продолжительность: 00:23:00

Перевод: Любительский (многоголосый закадровый) Quantum Studio
Субтитры: нет
Режиссёр: Гари Дэвид Голдберг

В ролях:
Мередит Бакстер, Майкл Гросс, Майкл Дж. Фокс, Джастин Бэйтмен, Тина Йозерс и др.

Текст читали:
Дмитрий "Zahar" Сухоруков - Стивен Китон,
Анастасия "Stacy" Домнина - Элиза Китон (в 1х01)
Екатерина "Siviel" Дмитрова - Мэллори Китон, Дженнифер Китон, Элиза Китон (в 1х02)
Вячеслав "Berserk" Громов - Алекс Китон (в 1x01)
Артем Кущак - Алекс Китон (в 1x02)

Перевод с англ. (1-2 серия): Михаил Осинцев

Описание:
"Семейные узы" - американский ситком, состоящий из 7-ми сезонов и выходивший на канале NBC. Сериал рассказывает о жизни обычной американской семьи и на ее примере, с известной долей юмора, отражает постепенный отказ от культурного либерализма, который имел место в 60-ых и 70-ых годах, и переход к более консервативному обществу 80-ых. Молодое поколение отвергает идеалы своих родителей, создавая шкалу своих собственных ценностей. Рональд Рейган, во время правления которого и демонстрировался сериал, однажды заявил, что он является его любимым.

Качество: DVDRip
Формат: AVI
Видео кодек: XviD
Аудио кодек: MP3
Видео (1-2 серии): XviD, 448x336, 29.970 fps, ~1285 kbps, 0.285 bit/pixel
Аудио (1 серия): MP3, 44.1 kHz, 2 ch, 256 kbps
Аудио (2 серия): РCM, 48.0 kHz, 1 ch, 768 kbps

Сэмпл: http://multi-up.com/938938



Код:
Общее
Полное имя                               : E:СериалыFamily Ties - Season 11x01 - Pilot.avi
Формат                                   : AVI
Формат/Информация                        : Audio Video Interleave
Размер файла                             : 262 Мбайт
Продолжительность                        : 23 м.
Общий поток                              : 1553 Кбит/сек
Программа кодирования                    : Nandub v1.0rc2
Библиотека кодирования                   : VirtualDub build 35390/release

Видео
Идентификатор                            : 0
Формат                                   : MPEG-4 Visual
Профиль формата                          : Advanced Simple@L5
Параметр BVOP формата                    : 2
Параметр QPel формата                    : Нет
Параметр GMC формата                     : Без точки перехода
Параметр матрицы формата                 : Default (MPEG)
Идентификатор кодека                     : XVID
Идентификатор кодека/Подсказка           : XviD
Продолжительность                        : 23 м.
Битрейт                                  : 1285 Кбит/сек
Ширина                                   : 448 пикселей
Высота                                   : 336 пикселей
Соотношение сторон                       : 4:3
Частота кадров                           : 29,970 кадров/сек
Цветовое пространство                    : YUV
Субдискретизация насыщенности            : 4:2:0
Битовая глубина                          : 8 бит
Тип развёртки                            : Прогрессивная
Метод сжатия                             : С потерями
Бит/(Пиксели*Кадры)                      : 0.285
Размер потока                            : 216 Мбайт (83%)
Библиотека кодирования                   : XviD 1.1.0 Beta2 (UTC 2005-04-04)

Аудио
Идентификатор                            : 1
Формат                                   : MPEG Audio
Версия формата                           : Version 1
Профиль формата                          : Layer 3
Идентификатор кодека                     : 55
Идентификатор кодека/Подсказка           : MP3
Продолжительность                        : 23 м.
Вид битрейта                             : Постоянный
Битрейт                                  : 256 Кбит/сек
Каналы                                   : 2 канала
Частота                                  : 44,1 КГц
Метод сжатия                             : С потерями
Размер потока                            : 43,1 Мбайт (16%)
Выравнивание                             : Разделение по промежуткам
Продолжительность промежутка             : 33  мс. (1,00 видеокадр)
Время предзагрузки промежутка            : 500  мс.


Код:
Общее
Полное имя                               : E:СериалыFamily Ties - Season 11x02 - Not With My Sister You Don't.avi
Формат                                   : AVI
Формат/Информация                        : Audio Video Interleave
Размер файла                             : 351 Мбайт
Продолжительность                        : 24 м.
Общий поток                              : 2027 Кбит/сек
Программа кодирования                    : Nandub v1.0rc2
Библиотека кодирования                   : VirtualDub build 35390/release

Видео
Идентификатор                            : 0
Формат                                   : MPEG-4 Visual
Профиль формата                          : Advanced Simple@L5
Параметр BVOP формата                    : 2
Параметр QPel формата                    : Нет
Параметр GMC формата                     : Без точки перехода
Параметр матрицы формата                 : Default (MPEG)
Идентификатор кодека                     : XVID
Идентификатор кодека/Подсказка           : XviD
Продолжительность                        : 24 м.
Битрейт                                  : 1247 Кбит/сек
Ширина                                   : 448 пикселей
Высота                                   : 336 пикселей
Соотношение сторон                       : 4:3
Частота кадров                           : 29,970 кадров/сек
Цветовое пространство                    : YUV
Субдискретизация насыщенности            : 4:2:0
Битовая глубина                          : 8 бит
Тип развёртки                            : Прогрессивная
Метод сжатия                             : С потерями
Бит/(Пиксели*Кадры)                      : 0.276
Размер потока                            : 216 Мбайт (62%)
Библиотека кодирования                   : XviD 1.1.0 Beta2 (UTC 2005-04-04)

Аудио
Идентификатор                            : 1
Формат                                   : PCM
Параметр Endianness формата              : Little
Параметр Sign формата                    : Signed
Идентификатор кодека                     : 1
Продолжительность                        : 24 м.
Вид битрейта                             : Постоянный
Битрейт                                  : 768 Кбит/сек
Каналы                                   : 1 канал
Частота                                  : 48,0 КГц
Битовая глубина                          : 16 бит
Размер потока                            : 133 Мбайт (38%)
Выравнивание                             : Соединение по промежуткам
Продолжительность промежутка             : 33  мс. (1,00 видеокадр)
Время предзагрузки промежутка            : 500  мс.







Внимание! Раздача ведётся путём добавления новых серий; при каждом добавлении создаётся новый торрент-файл. Чтобы начать докачку новой серии, пользователям необходимо сделать следующее:
(1) остановить скачивание;
(2) удалить старый торрент-файл у себя из клиента (старые серии удалять не надо);
(3) скачать новый торрент-файл и запустить его у себя в клиенте вместо старого, при этом указать клиенту путь в старую папку куда и должно происходить скачивание новых серий.
Ваш клиент при этом должен произвести хеширование (проверку) старой папки (если он не производит проверку сам – помогите ему сделать это), и будет докачивать только те серии которых у вас ещё нет. Старые серии при этом не удаляются, а продолжают раздаваться!
Если вы уже удалили старые серии, то предотвратить повторную закачку старых серий можно, отжав галочку в соответствующих местах при запуске нового торрент-файла. Желательно старые серии не удалять как можно дольше, чтобы релизёр не столько продолжал раздавать старые серии, а смог сконцентрироваться на новых.



   Похожие торренты   Торрент   Размер 
В этой теме нет новых непрочитанных сообщений. Дикая природа. Семейные узы: Западная равнинная горилла / Wild Life. Family Ties: Western Lowland Gorilla (2012) HDTVRip от GeneralFilm | P1

23 | 4

638.17 МБ

В этой теме нет новых непрочитанных сообщений. Семейные демоны / Family Demons (2009) DVDRip

4 | 1

773.63 МБ

В этой теме нет новых непрочитанных сообщений. Семейные ценности / It Runs in the Family (2003) DVDRip | P

59 | 16

1.37 ГБ

В этой теме нет новых непрочитанных сообщений. Семейные ценности / It Runs in the Family (2003) BDRip-AVC | P

0 | 0

2.18 ГБ

В этой теме нет новых непрочитанных сообщений. Семейные инструменты / Family Tools [s01] (2013) HDTVRip | L2

45 | 11

2.26 ГБ

В этой теме нет новых непрочитанных сообщений. Семейные каникулы. Калифорния / Family Vacation: California (2012) PC

22 | 2

169.04 МБ

В этой теме нет новых непрочитанных сообщений. Семейные истории: Близнецы / Family Tales: The Sisters (2013) PC

96 | 4

296.03 МБ




Вы не можете начинать темы
Вы не можете отвечать на сообщения
Вы не можете редактировать свои сообщения
Вы не можете удалять свои сообщения
Вы не можете добавлять вложения

Перейти:  
Для Мосгорсуда, Роскомнадзора и рекламодателей: mosgorsud-torrent[собачка]yandex.ru
 Вход
ppkBB3cker v.2 © 2008-2014 @ PPK
[ Time : 0.050s | 15 Queries | GZIP : Off ]

Торрент трекер RUTOR.IN, Не можете зайти на rutor.org? Какой новый адрес рутор? Какое зеркало рутор? Не работает rutor.org и зеркала? Тогда наш торрент специально для вас. Rutor.in неофициальное зеркало rutor. В случае если у Вас заблокирован rutor или вдруг Вы не можете на него зайти, то Вы без труда сможете скачать бесплатно и без рекламы последние новинки кино, игр, сериалов и прочего у нас, на Rutor.in. Не нужно использовать прокси, чтобы зайти на рутор, достаточно воспользоваться нашим ресурсом. Все новые фильмы, игры, сериалы, книги и музыка за 2013 и 2014 годы через торрент бесплатно. Скачивайте фильмы в хорошем качестве, игры для пк, xbox, playstation без регистрации. У нас вы найдете новые Зарубежные сериалы и Русские сериалы 2013, 2014, 2015 годов. Оставайтесь с нами, качайте любимые фильмы, игры, сериалы, книги и музыку.
cron