img image001 image001 image001 image001 image001 image001 image001 image001 image001 image001 image001 image001 image001 image001 image001

Planets Sun Sun Sun
Статистика раздачи
Автор: PriZraK | Размер: 974.98 МБ | Добавлен: 15 фев 2014
Раздают: 0    Качают: 1
Скачать торрент
Скачать торрент
Описание торрента

СообщениеДобавлено: 15 фев 2014 




Информация о фильме
Название: Мунфлит
Оригинальное название: Moonfleet
Год выпуска: 2013
Жанр: Приключения, драма
Выпущено: Великобритания, Sky 1 HD
Режиссер: Энди де Эммони
В ролях: Рэй Уинстон, Анайрин Барнард, Софи Куксон, Энтони Офоеджбу, Фил Дэниелс, Лоркан Кранич, Пиппа Хэйвуд, Ник Ли, Йен МакЭлхинни, Лесли Викерадж

О фильме:
Фильм снят по одноименному роману Джона Мида Фолкнера. Англия, рыбацкое селение Мунфлит на морском побережье Дорсета в 1742 году, контробандисты, "красные мундиры" ... в центре повествования противостояние "крысиного короля" - главы контрабандистов Эльзевира Блока всему существующему строю и, в часности, его олицетвореню - судье Махоуну. После убийства Махоуном Дэйви Блока, сына Эльзевира Блока, последний приючает, друга своего убитого сына, Джона Трэнчарда, который, в итоге, и заменяет ему сына. Мальчик же видит в своём спутнике только лучшие черты, и это пробуждает душу старого греховодника к новой жизни … Полная приключений и захватывающего экшена история, история любви Джона Трэнчарда и Грэйс Махоун, не оставит равнодушным никого.



Выпущено: Великобритания, Sky 1 HD
Продолжительность: 01:26:24
Озвучивание: Любительское многоголосое (Albion Studio)



Файл
Кодек: XviD
Качество: HDTVRip
Видео: 1369 Кбит/с, 624x352, 25.000 кадр/сек
Аудио: Русский (AC3, 2 ch, 192 Кбит/с) / Любительский многоголосый (Albion Studio)

Семпл

Адам Шухарт - Джон Трэнчард
Ольга Никитина - Грэйс Махоун, тетя Джэйн
Михаил Бигыч - Эльзевир Блок, Черная борода, эпизоды
Влад Третьяк - Судья Махоун, Ювелир
Алексей Леонов - Рэтси, Пастор
Юрий Ковалев - Контробандист, эпизоды
Михаил Гапонов - Мич, Надзиратель
Денис Засимов - Гарри
Михаил Ананьев - Дэйви Блок, Офицер красных мундиров, эпизоды
Мария Аскольта - Молли
Константин Силаев - Офицер в тюрьме
Марина Ковалева - Тетя Лидия
Звукорежиссер: Михаил Бигыч

General
Complete name : E:Раздачи от Albion-StudioMoonflet 2013 (UK) HDTVRip Rus MVO Albion Studio.avi
Format : AVI
Format/Info : Audio Video Interleave
File size : 975 MiB
Duration : 1h 26mn
Overall bit rate : 1 573 Kbps
Writing application : Lavf52.93.0

Video
ID : 0
Format : xvid
Codec ID : xvid
Duration : 1h 26mn
Bit rate : 1 369 Kbps
Width : 624 pixels
Height : 352 pixels
Display aspect ratio : 16:9
Frame rate : 25.000 fps
Bits/(Pixel*Frame) : 0.249
Stream size : 848 MiB (87%)

Audio
ID : 1
Format : MPEG Audio
Format version : Version 1
Format profile : Layer 3
Mode : Joint stereo
Mode extension : MS Stereo
Codec ID : 55
Codec ID/Hint : MP3
Duration : 43mn 19s
Source duration : 1h 26mn
Bit rate mode : Constant
Bit rate : 192 Kbps
Channel count : 2 channels
Sampling rate : 48.0 KHz
Compression mode : Lossy
Stream size : 119 MiB (12%)
Alignment : Aligned on interleaves
Interleave, duration : 24 ms (0.60 video frame)





   Похожие торренты   Торрент   Размер 
В этой теме нет новых непрочитанных сообщений. Мунфлит / Moonfleet [01x01-02 из 2] (2013) HDTVRip 720p | Albion-Studio

0 | 1

2.43 ГБ

В этой теме нет новых непрочитанных сообщений. Мунфлит / Moonfleet (1955) DVDRip от ExKinoRay

3 | 3

1.01 ГБ

В этой теме нет новых непрочитанных сообщений. Возвращенные / The Returned [01х01-05 из 10] (2015) HDTVRip | Flux-Team & Albion Studio

71 | 49

2.88 ГБ

В этой теме нет новых непрочитанных сообщений. Возвращенные / The Returned [01х01-07 из 10] (2015) HDTVRip | Flux-Team & Albion Studio

84 | 59

4.01 ГБ

В этой теме нет новых непрочитанных сообщений. Возвращенные / The Returned [01х01-04 из 10] (2015) HDTVRip | Flux-Team & Albion Studio

78 | 55

2.32 ГБ

В этой теме нет новых непрочитанных сообщений. Возвращенные / The Returned [01х01-03 из 10] (2015) HDTVRip | Flux-Team & Albion Studio

43 | 15

1.74 ГБ

В этой теме нет новых непрочитанных сообщений. Тайные связи / Covert Affairs [04x01-16 из 16] (2013) WEB-DLRip 720p | Albion-Studio

2 | 2

23.63 ГБ




Вы не можете начинать темы
Вы не можете отвечать на сообщения
Вы не можете редактировать свои сообщения
Вы не можете удалять свои сообщения
Вы не можете добавлять вложения

Перейти:  
Для Мосгорсуда, Роскомнадзора и рекламодателей: mosgorsud-torrent[собачка]yandex.ru
 Вход
ppkBB3cker v.2 © 2008-2014 @ PPK
[ Time : 0.761s | 17 Queries | GZIP : Off ]

Торрент трекер RUTOR.IN, Не можете зайти на rutor.org? Какой новый адрес рутор? Какое зеркало рутор? Не работает rutor.org и зеркала? Тогда наш торрент специально для вас. Rutor.in неофициальное зеркало rutor. В случае если у Вас заблокирован rutor или вдруг Вы не можете на него зайти, то Вы без труда сможете скачать бесплатно и без рекламы последние новинки кино, игр, сериалов и прочего у нас, на Rutor.in. Не нужно использовать прокси, чтобы зайти на рутор, достаточно воспользоваться нашим ресурсом. Все новые фильмы, игры, сериалы, книги и музыка за 2013 и 2014 годы через торрент бесплатно. Скачивайте фильмы в хорошем качестве, игры для пк, xbox, playstation без регистрации. У нас вы найдете новые Зарубежные сериалы и Русские сериалы 2013, 2014, 2015 годов. Оставайтесь с нами, качайте любимые фильмы, игры, сериалы, книги и музыку.
cron