img image001 image001 image001 image001 image001 image001 image001 image001 image001 image001 image001 image001 image001 image001 image001

Planets Sun Sun Sun
Статистика раздачи
Автор: PriZraK | Размер: 6.1 ГБ | Добавлен: 15 фев 2014
Раздают: 28    Качают: 20
Скачать торрент
Скачать торрент
Описание торрента

СообщениеДобавлено: 15 фев 2014 


«Каждое преступление имеет свой запах…»




Страна: Украина / Film.UA
Жанр: детектив, драма, криминал
Год выпуска: 2013
Продолжительность: 8 x ~00:50:00

Перевод: не требуется
Cубтитры: нет
Оригинальная аудиодорожка: русский

Режиссер: Артем Литвиненко

В ролях: Кирилл Кяро, Оксана Коляденко, Петр Крылов, Андрей Дебрин, Иван Оганесян, Мария Аниканова, Александр Тютин, Борис Каморзин, Николай Чиндяйкин, Нина Гогаева...

Описание: Его зовут Нюхач. Он обладает сверхчувствительным обонянием, для него не существует тайн и нераскрываемых преступлений. По запаху Нюхач может рассказать все и даже больше о любом человеке: что он ел, с кем он спал, есть ли у него алиби. Уникальная способность Нюхача — его дар и проклятие одновременно.
С одной стороны, он раскрывает самые изощренные и запутанные преступления, знает все сокровенные тайны политиков, бизнесменов и криминальных авторитетов. С другой — Нюхач абсолютно беззащитен перед окружающим миром, переполненным всевозможными запахами. Он не умеет строить отношения ни с женщинами, ни с близкими людьми, потому что знает о них всё: ему невозможно сделать сюрприз, его нельзя обмануть, любой посторонний запах оттолкнет его от самого романтического свидания. У него сложная, но интересная жизнь…



Качество: DVDRip-AVC (DVD9 R5)
Формат: MKV

Видео: 720x576@1024x576 (16:9), 25.000 fps, H264 ~ 2006 kbps avg, 0.193 bit/pixel
Аудио: 48 kHz, АС3 2 ch, 128 kbps, русский

Раздача от:
Общее
Полное имя : Nyuhach.2013.O.DVDRip-AVC_[New-Team]_by_avproh\01.mkv
Формат : Matroska
Версия формата : Version 2
Размер файла : 759 Мбайт
Продолжительность : 49 м.
Общий поток : 2136 Кбит/сек
Дата кодирования : UTC 2014-01-29 08:56:09
Программа кодирования : mkvmerge v6.1.0 ('Old Devil') built on Mar 4 2013 09:10:42
Библиотека кодирования : libebml v1.3.0 + libmatroska v1.4.0

Видео
Идентификатор : 1
Формат : AVC
Формат/Информация : Advanced Video Codec
Профиль формата : High@L4.1
Параметр CABAC формата : Да
Параметр ReFrames формата : 6 кадров
Идентификатор кодека : V_MPEG4/ISO/AVC
Продолжительность : 49 м.
Битрейт : 2006 Кбит/сек
Ширина : 720 пикселей
Высота : 576 пикселей
Соотношение сторон : 16:9
Режим частоты кадров : Постоянный
Частота кадров : 25,000 кадров/сек
Стандарт вещания : PAL
Цветовое пространство : YUV
Субдискретизация насыщенности : 4:2:0
Битовая глубина : 8 бит
Тип развёртки : Прогрессивная
Бит/(Пиксели*Кадры) : 0.193
Размер потока : 699 Мбайт (92%)
Библиотека кодирования : x264 core 138 r2356 a1d3d17
Настройки программы : cabac=1 / ref=6 / deblock=1:-2:-1 / analyse=0x3:0x113 / me=umh / subme=10 / psy=1 / psy_rd=1.00:0.05 / mixed_ref=1 / me_range=32 / chroma_me=1 / trellis=2 / 8x8dct=1 / cqm=0 / deadzone=21,11 / fast_pskip=0 / chroma_qp_offset=-3 / threads=6 / lookahead_threads=1 / sliced_threads=0 / nr=0 / decimate=0 / interlaced=0 / bluray_compat=0 / constrained_intra=0 / bframes=8 / b_pyramid=2 / b_adapt=2 / b_bias=0 / direct=3 / weightb=1 / open_gop=0 / weightp=2 / keyint=250 / keyint_min=25 / scenecut=40 / intra_refresh=0 / rc=2pass / mbtree=0 / bitrate=2006 / ratetol=1.0 / qcomp=0.60 / qpmin=0 / qpmax=69 / qpstep=4 / cplxblur=20.0 / qblur=0.5 / ip_ratio=1.40 / pb_ratio=1.30 / aq=1:1.00
Default : Да
Forced : Нет

Аудио
Идентификатор : 2
Формат : AC-3
Формат/Информация : Audio Coding 3
Расширение режима : CM (complete main)
Параметр Endianness формата : Big
Идентификатор кодека : A_AC3
Продолжительность : 49 м.
Вид битрейта : Постоянный
Битрейт : 128 Кбит/сек
Каналы : 2 канала
Расположение каналов : Front: L R
Частота : 48,0 КГц
Битовая глубина : 16 бит
Метод сжатия : С потерями
Размер потока : 45,5 Мбайт (6%)
Default : Да
Forced : Нет





   Похожие торренты   Торрент   Размер 
В этой теме нет новых непрочитанных сообщений. Нюхач [01-08 из 08] (2013) DVDRip от New-Team | лицензия

421 | 67

6.1 ГБ

В этой теме нет новых непрочитанных сообщений. Нюхач [01-08 из 08] (2013) DVD9 R5 от New-Team | лицензия

10 | 8

7.95 ГБ

В этой теме нет новых непрочитанных сообщений. Нюхач [01-08 из 08] (2013) BDRip | Лицензия

779 | 245

5.81 ГБ

В этой теме нет новых непрочитанных сообщений. Нюхач [01-08 из 08] (2013) BDRip 720p от MediaClub | Лицензия

432 | 143

9.29 ГБ

В этой теме нет новых непрочитанных сообщений. Нюхач [01-08 из 08] (2013) WEB-DLRip от Generalfilm

234 | 68

5.08 ГБ

В этой теме нет новых непрочитанных сообщений. Нюхач [01-08 из 08] (2013) BDRemux от ExKinoRay

8 | 27

18.42 ГБ

В этой теме нет новых непрочитанных сообщений. Нюхач [S01-02] (2013-2015) WEB-DLRip

1498 | 862

10.94 ГБ




Вы не можете начинать темы
Вы не можете отвечать на сообщения
Вы не можете редактировать свои сообщения
Вы не можете удалять свои сообщения
Вы не можете добавлять вложения

Перейти:  
Для Мосгорсуда, Роскомнадзора и рекламодателей: mosgorsud-torrent[собачка]yandex.ru
 Вход
ppkBB3cker v.2 © 2008-2014 @ PPK
[ Time : 0.643s | 17 Queries | GZIP : Off ]

Торрент трекер RUTOR.IN, Не можете зайти на rutor.org? Какой новый адрес рутор? Какое зеркало рутор? Не работает rutor.org и зеркала? Тогда наш торрент специально для вас. Rutor.in неофициальное зеркало rutor. В случае если у Вас заблокирован rutor или вдруг Вы не можете на него зайти, то Вы без труда сможете скачать бесплатно и без рекламы последние новинки кино, игр, сериалов и прочего у нас, на Rutor.in. Не нужно использовать прокси, чтобы зайти на рутор, достаточно воспользоваться нашим ресурсом. Все новые фильмы, игры, сериалы, книги и музыка за 2013 и 2014 годы через торрент бесплатно. Скачивайте фильмы в хорошем качестве, игры для пк, xbox, playstation без регистрации. У нас вы найдете новые Зарубежные сериалы и Русские сериалы 2013, 2014, 2015 годов. Оставайтесь с нами, качайте любимые фильмы, игры, сериалы, книги и музыку.
cron