img image001 image001 image001 image001 image001 image001 image001 image001 image001 image001 image001 image001 image001 image001 image001

Planets Sun Sun Sun
Статистика раздачи
Автор: PriZraK | Размер: 8.72 ГБ | Добавлен: 15 фев 2014
Раздают: 309    Качают: 82
Скачать торрент
Скачать торрент
Описание торрента

СообщениеДобавлено: 15 фев 2014 




Информация о фильме
Название: Отец Браун
Оригинальное название: Father Brown
Год выхода: 2013
Жанр: драма, детектив
Режиссер: Йен Барбер, Мэтт Картер, Доминик Киви
В ролях: Марк Вильямс, Хьюго Спир, Kasia Koleczek, Майк Истман, Алекс Прайс, Кейт Осборн, Нэнси Кэролл

О фильме:
В английском священнике есть большая часть тех качеств, которые были присущи Шерлоку Холмсу. Он умел обращать внимание на незаметные детали, в разговоре больше внимания старался уделять мимике собеседника — ведь жесты человека, как теперь считают ученые, могут сказать больше, чем слова. Глубокий анализ и умение мыслить логически делают отца Брауна, внешне скромного и неприметного, суровым обличителем для преступников.
Официальный сайт

Страна: Великобритания
Студия: BBC One
Продолжительность: ~00:49:00 серия
Перевод: Профессиональный (многоголосый закадровый) ТВЦ

Файл
Кодек: XviD / AC3
Качество: HDTVRip
Видео: XviD, 720x400 (16/9), 25.000 fps, 1879 Kbps (0.261 bit/pixel)
Звук:
Аудио 1: AC3, 48.0 KHz, 2 ch, 192 Kbps - русский
Аудио 2: AC3, 48.0 KHz, 6 ch, 448 Kbps - английский

General
Complete name : /Отец Браун (2013)/1x01 - The Hammer of God (Молот Господень).avi
Format : AVI
Format/Info : Audio Video Interleave
File size : 893 MiB
Duration : 49mn 16s
Overall bit rate : 2 533 Kbps
Director : miha2154
Writing application : VirtualDubMod 1.5.10.2 (build 2540/release)
Writing library : VirtualDubMod build 2540/release

Video
ID : 0
Format : MPEG-4 Visual
Format profile : Advanced Simple@L5
Format settings, BVOP : 2
Format settings, QPel : No
Format settings, GMC : No warppoints
Format settings, Matrix : Default (MPEG)
Codec ID : XVID
Codec ID/Hint : XviD
Duration : 49mn 16s
Bit rate : 1 879 Kbps
Width : 720 pixels
Height : 400 pixels
Display aspect ratio : 16:9
Frame rate : 25.000 fps
Color space : YUV
Chroma subsampling : 4:2:0
Bit depth : 8 bits
Scan type : Progressive
Compression mode : Lossy
Bits/(Pixel*Frame) : 0.261
Stream size : 662 MiB (74%)
Writing library : XviD 1.1.0 (UTC 2005-11-22)

Audio #1
ID : 1
Format : AC-3
Format/Info : Audio Coding 3
Mode extension : CM (complete main)
Format settings, Endianness : Big
Codec ID : 2000
Duration : 49mn 16s
Bit rate mode : Constant
Bit rate : 192 Kbps
Channel(s) : 2 channels
Channel positions : Front: L R
Sampling rate : 48.0 KHz
Bit depth : 16 bits
Compression mode : Lossy
Stream size : 67.7 MiB (8%)
Alignment : Split accross interleaves
Interleave, duration : 40 ms (1.00 video frame)
Interleave, preload duration : 500 ms

Audio #2
ID : 2
Format : AC-3
Format/Info : Audio Coding 3
Mode extension : CM (complete main)
Format settings, Endianness : Big
Codec ID : 2000
Duration : 49mn 16s
Bit rate mode : Constant
Bit rate : 448 Kbps
Channel(s) : 6 channels
Channel positions : Front: L C R, Side: L R, LFE
Sampling rate : 48.0 KHz
Bit depth : 16 bits
Compression mode : Lossy
Stream size : 158 MiB (18%)
Alignment : Split accross interleaves
Interleave, duration : 40 ms (1.00 video frame)
Interleave, preload duration : 500 ms



   Похожие торренты   Торрент   Размер 
В этой теме нет новых непрочитанных сообщений. Отец Браун / Патер Браун / Father Brown [s01-03] (2013-2015) HDTVRip | ТВЦ

45 | 67

26.6 ГБ

В этой теме нет новых непрочитанных сообщений. Отец Браун / Патер Браун / Father Brown [s01] (2013) HDTVRip 720p

80 | 27

9.2 ГБ

В этой теме нет новых непрочитанных сообщений. Отец Браун / Патер Браун / Father Brown [s01-03] (2013-2015) HDTVRip 720p | ТВЦ

32 | 39

32.37 ГБ

В этой теме нет новых непрочитанных сообщений. Отец Браун / Father Brown [S02] (2013) HDTVRip | ТВЦ

1178 | 21

8.74 ГБ

В этой теме нет новых непрочитанных сообщений. Отец Браун / Father Brown [02x01-04] (2013) HDTVRip | ТВЦ

35 | 9

3.5 ГБ

В этой теме нет новых непрочитанных сообщений. Отец Браун / Father Brown [02x01-06] (2013) HDTVRip | ТВЦ

20 | 27

5.25 ГБ

В этой теме нет новых непрочитанных сообщений. Отец Браун / Father Brown [02x01-08] (2013) HDTVRip | ТВЦ

113 | 214

7 ГБ




Вы не можете начинать темы
Вы не можете отвечать на сообщения
Вы не можете редактировать свои сообщения
Вы не можете удалять свои сообщения
Вы не можете добавлять вложения

Перейти:  
Для Мосгорсуда, Роскомнадзора и рекламодателей: mosgorsud-torrent[собачка]yandex.ru
 Вход
ppkBB3cker v.2 © 2008-2014 @ PPK
[ Time : 0.050s | 16 Queries | GZIP : Off ]

cron