img image001 image001 image001 image001 image001 image001 image001 image001 image001 image001 image001 image001 image001 image001 image001

Planets Sun Sun Sun
Статистика раздачи
Автор: PriZraK | Размер: 4.15 ГБ | Добавлен: 15 фев 2014
Раздают: 24    Качают: 9
Скачать торрент
Скачать торрент
Описание торрента

СообщениеДобавлено: 15 фев 2014 



АНОНСЫ МОИХ РИПОВ! ЛУЧШИЕ ФИЛЬМЫ И СЕРИАЛЫ ВСЕЙ ПЛАНЕТЫ! Подпишись :)


Город гангстеров / Mob City

Год выпуска: 2013
Страна: США
Жанр: триллер, драма, криминал, детектив
Продолжительность: ~48 мин. серия
Перевод: Профессиональный (многоголосый, закадровый) LostFilm
Cубтитры: нет

Режиссер: Фрэнк Дарабонт / Frank Darabont , Гай Ферленд / Guy Ferland

В ролях: Джон Бернтал, Эдвард Бёрнс, Майло Вентимилья, Нил МакДонаф, Алекса Давалос, Джеффри ДеМанн, Роберт Неппер, Джереми Люк, Грегори Итцин, Иддо Голдбер

Описание: Реальная история многолетнего конфликта между департаментом полиции Лос-Анджелеса под руководством Уильяма Паркера и безжалостных преступников во главе с Микки Коэном, боксёром, который взошёл на вершину криминального мира этого города.



Качество: WEB-DLRip-AVC [Исходник WEB-DL 1080p]
Формат: MKV
Видео кодек: H.264
Аудио кодек: AC3
Видео: 824x464 (16:9), 23.976 fps, H264 ~ 1 773 kbps avg, 0.193 bit/pixel
Аудио: 48 kHz, AC3 Dolby Digital, 3/2 (L,C,R,l,r) + LFE ch, ~384.00 kbps avg

Раздача от:


D:Мои рипыMob.City.S01.WEB-DLRip-AVC.dexter_lexMob.City.S01E01.WEB-DLRip-AVC.dexter_lex.mkv
General
Unique ID : 186325800619973433572490122920312748477 (0x8C2D0B3BE3BEEDB1A0FD01167694B9BD)
Complete name : D:Мои рипыMob.City.S01.WEB-DLRip-AVC.dexter_lexMob.City.S01E01.WEB-DLRip-AVC.dexter_lex.mkv
Format : Matroska
Format version : Version 2
File size : 745 MiB
Duration : 48mn 13s
Overall bit rate : 2 160 Kbps
Encoded date : UTC 2014-01-23 13:23:54
Writing application : mkvmerge v6.1.0 ('Old Devil') built on Mar 4 2013 09:10:42
Writing library : libebml v1.3.0 + libmatroska v1.4.0
Video #1
ID : 1
Format : AVC
Format/Info : Advanced Video Codec
Format profile : High@L4.1
Format settings, CABAC : Yes
Format settings, ReFrames : 11 frames
Codec ID : V_MPEG4/ISO/AVC
Duration : 48mn 13s
Bit rate : 1 773 Kbps
Width : 824 pixels
Height : 464 pixels
Display aspect ratio : 16:9
Frame rate : 23.976 fps
Color space : YUV
Chroma subsampling : 4:2:0
Bit depth : 8 bits
Scan type : Progressive
Bits/(Pixel*Frame) : 0.193
Stream size : 598 MiB (80%)
Writing library : x264 core 130 r2273 b3065e6
Encoding settings : cabac=1 / ref=11 / deblock=1:-1:-1 / analyse=0x3:0x113 / me=umh / subme=10 / psy=1 / psy_rd=1.00:0.15 / mixed_ref=1 / me_range=48 / chroma_me=1 / trellis=2 / 8x8dct=1 / cqm=0 / deadzone=21,11 / fast_pskip=0 / chroma_qp_offset=-3 / threads=6 / lookahead_threads=1 / sliced_threads=0 / nr=0 / decimate=1 / interlaced=0 / bluray_compat=0 / constrained_intra=0 / bframes=9 / b_pyramid=2 / b_adapt=2 / b_bias=0 / direct=3 / weightb=1 / open_gop=0 / weightp=2 / keyint=240 / keyint_min=23 / scenecut=40 / intra_refresh=0 / rc_lookahead=60 / rc=2pass / mbtree=1 / bitrate=1773 / ratetol=1.0 / qcomp=0.60 / qpmin=0 / qpmax=69 / qpstep=4 / cplxblur=20.0 / qblur=0.5 / ip_ratio=1.40 / aq=1:1.00
Default : Yes
Forced : No
Audio #2
ID : 2
Format : AC-3
Format/Info : Audio Coding 3
Mode extension : CM (complete main)
Codec ID : A_AC3
Duration : 48mn 13s
Bit rate mode : Constant
Bit rate : 384 Kbps
Channel(s) : 6 channels
Channel positions : Front: L C R, Side: L R, LFE
Sampling rate : 48.0 KHz
Bit depth : 16 bits
Compression mode : Lossy
Stream size : 132 MiB (18%)
Default : Yes
Forced : No

1. Парень заходит в бар / A Guy Walks Into a Bar
2. Причина для убийства / Reason to Kill a Man
3. Красный свет / His Banana Majesty
4. Новые заманчивые способы подачи бананов / Red Light
5. Волоклюй / Oxpecker
6. Пригнись / Stay Down



   Похожие торренты   Торрент   Размер 
В этой теме нет новых непрочитанных сообщений. Город гангстеров / Mob City [S01] (2013) WEB-DLRip от New-Team | LostFilm

142 | 35

2.05 ГБ

В этой теме нет новых непрочитанных сообщений. Город гангстеров / Mob City [S01] (2013) WEB-DLRip от New-Team | LostFilm

112 | 31

4.39 ГБ

В этой теме нет новых непрочитанных сообщений. Город гангстеров / Mob City [01x01-03] (2013) WEB-DLRip от New-Team | LostFilm

0 | 1

1.02 ГБ

В этой теме нет новых непрочитанных сообщений. Город гангстеров / Mob City [01x01-03] (2013) WEB-DLRip от New-Team | LostFilm

0 | 1

2.21 ГБ

В этой теме нет новых непрочитанных сообщений. Город гангстеров / Mob City [S01] (2013) WEB-DLRip-AVC | LostFilm

40 | 18

4.68 ГБ

В этой теме нет новых непрочитанных сообщений. Город гангстеров / Mob City [S01] (2013) WEB-DLRip | LostFilm

80 | 134

5.05 ГБ

В этой теме нет новых непрочитанных сообщений. Город гангстеров / Mob City [S01] (2013) WEB-DLRip | LostFilm

0 | 1

3.31 ГБ




Вы не можете начинать темы
Вы не можете отвечать на сообщения
Вы не можете редактировать свои сообщения
Вы не можете удалять свои сообщения
Вы не можете добавлять вложения

Перейти:  
Для Мосгорсуда, Роскомнадзора и рекламодателей: mosgorsud-torrent[собачка]yandex.ru
 Вход
ppkBB3cker v.2 © 2008-2014 @ PPK
[ Time : 0.089s | 15 Queries | GZIP : Off ]

Торрент трекер RUTOR.IN, Не можете зайти на rutor.org? Какой новый адрес рутор? Какое зеркало рутор? Не работает rutor.org и зеркала? Тогда наш торрент специально для вас. Rutor.in неофициальное зеркало rutor. В случае если у Вас заблокирован rutor или вдруг Вы не можете на него зайти, то Вы без труда сможете скачать бесплатно и без рекламы последние новинки кино, игр, сериалов и прочего у нас, на Rutor.in. Не нужно использовать прокси, чтобы зайти на рутор, достаточно воспользоваться нашим ресурсом. Все новые фильмы, игры, сериалы, книги и музыка за 2013 и 2014 годы через торрент бесплатно. Скачивайте фильмы в хорошем качестве, игры для пк, xbox, playstation без регистрации. У нас вы найдете новые Зарубежные сериалы и Русские сериалы 2013, 2014, 2015 годов. Оставайтесь с нами, качайте любимые фильмы, игры, сериалы, книги и музыку.