img image001 image001 image001 image001 image001 image001 image001 image001 image001 image001 image001 image001 image001 image001 image001

Planets Sun Sun Sun
Статистика раздачи
Автор: PriZraK | Размер: 7.07 ГБ | Добавлен: 15 фев 2014
Раздают: 0    Качают: 2
Скачать торрент
Скачать торрент
Описание торрента

СообщениеДобавлено: 15 фев 2014 


Обитель лжи / House of Lies


Название: Обитель лжиОригинальное название: House of Lies
Год выхода: 2014
Жанр: Драма, комедия



Режиссер: Стивен Хопкинс, Адам Бернштейн, Мигель Артета

В ролях: Дон Чидл, Кристен Белл, Бен Шварц, Джош Лоусон, Доун Оливери, Донис Леонард мл., Глинн Тёрмен, Ниа Лонг, Бесс Армстронг, Гриффин Данн



О фильме:
House of Lies - сериал основан на книге с длинным названием "House of Lies: How Management Consultants Steal Your Watch and Then Tell You the Time". В центре сюжета успешный бизнес-консультант Марти Кан (Дон Чидл), который не брезгует никакими средствами для достижения цели. Разведен, живет с отцом-мозгоправом, воспитывает сына-трансвестита. Его команда: Джинни (Кристен Белл) - бизнес-психолог по образованию, рубит правду-матку глядя собеседнику в глаза; Даг (Джош Лоусон) - слегка трусоватый, вечно что-то жующий выпускник Гарварда; Клайд (Бен Шварц) - в любом деле готов поддержать своего наставника и придти на выручку с дельным советом. Вместе они имеют этот мир!







Страна: США, Refugee Productions
Продолжительность: 5 x ~ 00:26:30
Перевод: Профессиональный многоголосый (Novamedia)



Качество: HDTV 1080i
Видео: MPEG-4 AVC, 6802 Кбит/с, 1920x1080
Звук: AC3, 6 ch, 384 Кбит/с


Общее
Идентификатор : 1 (0x1)
Полное имя : D:House.of.Lies.S03House.of.Lies.S03E01.2014.P.HDTV.1080i.ts
Формат : MPEG-TS
Размер файла : 1,35 Гбайт
Продолжительность : 25 м.
Режим общего битрейта : Переменный
Общий поток : 7563 Кбит/сек

Видео
Идентификатор : 69 (0x45)
Идентификатор меню : 1 (0x1)
Формат : AVC
Формат/Информация : Advanced Video Codec
Профиль формата : High@L4.0
Параметр CABAC формата : Да
Параметр ReFrames формата : 4 кадра
Идентификатор кодека : 27
Продолжительность : 25 м.
Битрейт : 6802 Кбит/сек
Ширина : 1920 пикселей
Высота : 1080 пикселей
Соотношение сторон : 16:9
Частота кадров : 25,000 кадров/сек
Стандарт вещания : Component
Цветовое пространство : YUV
Субдискретизация насыщенности : 4:2:0
Битовая глубина : 8 бит
Тип развёртки : MBAFF
Бит/(Пиксели*Кадры) : 0.131
Размер потока : 1,21 Гбайт (90%)
Основные цвета : BT.709
Характеристики трансфера : BT.709
Коэффициенты матрицы : BT.709

Аудио
Идентификатор : 68 (0x44)
Идентификатор меню : 1 (0x1)
Формат : AC-3
Формат/Информация : Audio Coding 3
Расширение режима : CM (complete main)
Параметр Endianness формата : Big
Идентификатор кодека : 129
Продолжительность : 25 м.
Вид битрейта : Постоянный
Битрейт : 384 Кбит/сек
Каналы : 6 каналов
Расположение каналов : Front: L C R, Side: L R, LFE
Частота : 48,0 КГц
Битовая глубина : 16 бит
Метод сжатия : С потерями
Размер потока : 70,1 Мбайт (5%)
Язык : Russian



   Похожие торренты   Торрент   Размер 
В этой теме нет новых непрочитанных сообщений. Обитель лжи / House of Lies [03x01-06 из 12] (2014) HDTV 1080i | Novamedia

19 | 121

8.44 ГБ

В этой теме нет новых непрочитанных сообщений. Обитель Лжи / House of Lies [03x01-06] (2014) HDTVRip | Novamedia

81 | 118

2.05 ГБ

В этой теме нет новых непрочитанных сообщений. Обитель Лжи / House of Lies [03x01-07] (2014) HDTVRip | Novamedia

41 | 34

2.39 ГБ

В этой теме нет новых непрочитанных сообщений. Обитель Лжи / House of Lies [03x01-09 из 12] (2014) HDTVRip | Novamedia

71 | 206

3.07 ГБ

В этой теме нет новых непрочитанных сообщений. Обитель Лжи / House of Lies [03x01-11 из 12] (2014) HDTVRip | Novamedia

94 | 231

3.76 ГБ

В этой теме нет новых непрочитанных сообщений. Обитель Лжи / House of Lies [03x01-10 из 12] (2014) HDTVRip | Novamedia

109 | 186

3.42 ГБ

В этой теме нет новых непрочитанных сообщений. Обитель Лжи / House of Lies [03x01-05] (2014) HDTVRip | Novamedia

146 | 63

1.71 ГБ




Вы не можете начинать темы
Вы не можете отвечать на сообщения
Вы не можете редактировать свои сообщения
Вы не можете удалять свои сообщения
Вы не можете добавлять вложения

Перейти:  
Для Мосгорсуда, Роскомнадзора и рекламодателей: mosgorsud-torrent[собачка]yandex.ru
 Вход
ppkBB3cker v.2 © 2008-2014 @ PPK
[ Time : 0.059s | 16 Queries | GZIP : Off ]

cron