img image001 image001 image001 image001 image001 image001 image001 image001 image001 image001 image001 image001 image001 image001 image001

Planets Sun Sun Sun
Статистика раздачи
Автор: PriZraK | Размер: 10.79 ГБ | Добавлен: 15 фев 2014
Раздают: 775    Качают: 358
Скачать торрент
Скачать торрент
Описание торрента

СообщениеДобавлено: 15 фев 2014 




Страна: Россия, Украина / Россия 1
Жанр: военный, драма
Год выпуска: 2013
Продолжительность: 16 x ~00:43:30

Перевод: не требуется
Cубтитры: нет
Оригинальная аудиодорожка: русский

Режиссер: Валерий Шалыга

В ролях: Александр Пашков, Йоханес Габриель, Любовь Тихомирова, Дарья Баранова, Ольга Олексий, Владимир Башкиров, Егор Баринов, Анатолий Гущин, Нина Усатова, Андрей Саминин...

Описание: Сериал о событиях 1943 года, когда после разгромных событий под Сталинградом немецкие войска готовятся к реваншу. На оккупированную немецкими войсками территорию выбросили советскую десантную группу.
Боевым заданием погибшей разведгруппы было разведать планы готовящегося немецкого контрнаступления, которое должно было исходить или из Белоруссии, или на Курском направлении. Вся группа гибнет, и лишь одна девушка-радистка Катя остается в живых…



Качество: DVDRip (2 x DVD9 R5)
Формат: AVI

Видео: 720x400 (16:9), 25.000 fps, XViD ~ 2000 kbps avg, 0.278 bit/pixel
Аудио: 48 kHz, АС3 2 ch, 192 kbps, русский

Раздача от:
Общее
Полное имя : 1943.2013.O.DVDRip_[New-Team]_by_avproh\01.avi
Формат : AVI
Формат/Информация : Audio Video Interleave
Размер файла : 683 Мбайт
Продолжительность : 43 м.
Общий поток : 2201 Кбит/сек
Программа кодирования : VirtualDubModRus 1.5.10.2 (build 2542/release)
Библиотека кодирования : VirtualDubMod build 2542/release

Видео
Идентификатор : 0
Формат : MPEG-4 Visual
Профиль формата : Advanced Simple@L5
Параметр BVOP формата : 1
Параметр QPel формата : Нет
Параметр GMC формата : Без точки перехода
Параметр матрицы формата : Выборочная
Идентификатор кодека : XVID
Идентификатор кодека/Подсказка : XviD
Продолжительность : 43 м.
Битрейт : 1999 Кбит/сек
Ширина : 720 пикселей
Высота : 400 пикселей
Соотношение сторон : 16:9
Частота кадров : 25,000 кадров/сек
Цветовое пространство : YUV
Субдискретизация насыщенности : 4:2:0
Битовая глубина : 8 бит
Тип развёртки : Прогрессивная
Метод сжатия : С потерями
Бит/(Пиксели*Кадры) : 0.278
Размер потока : 620 Мбайт (91%)
Библиотека кодирования : XviD 73

Аудио
Идентификатор : 1
Формат : AC-3
Формат/Информация : Audio Coding 3
Расширение режима : CM (complete main)
Параметр Endianness формата : Big
Идентификатор кодека : 2000
Продолжительность : 43 м.
Вид битрейта : Постоянный
Битрейт : 192 Кбит/сек
Каналы : 1 канал
Расположение каналов : Front: C
Частота : 48,0 КГц
Битовая глубина : 16 бит
Метод сжатия : С потерями
Размер потока : 59,5 Мбайт (9%)
Выравнивание : Разделение по промежуткам
Продолжительность промежутка : 40 мс. (1,00 видеокадр)
Время предзагрузки промежутка : 500 мс.







   Похожие торренты   Торрент   Размер 
В этой теме нет новых непрочитанных сообщений. 1943 [01-16 из 16] (2013) DVDRip-AVC от New-Team | лицензия

404 | 224

10.78 ГБ

В этой теме нет новых непрочитанных сообщений. 1943 [01-16 из 16] (2013) 2xDVD9 R5 от New-Team | лицензия

105 | 25

14.63 ГБ

В этой теме нет новых непрочитанных сообщений. Во имя Родины (1943) DVDRip от New-Team

17 | 16

1.09 ГБ

В этой теме нет новых непрочитанных сообщений. Сталинград (1943) DVDRip от New-Team

152 | 6

1.09 ГБ

В этой теме нет новых непрочитанных сообщений. Сталинград (1943) DVDRip от New-Team

204 | 7

748.29 МБ

В этой теме нет новых непрочитанных сообщений. Сталинград (1943) DVDRip-AVC от New-Team

180 | 11

1.09 ГБ

В этой теме нет новых непрочитанных сообщений. Давид Бек (1943) DVDRip от New-Team

6 | 6

746.64 МБ




Вы не можете начинать темы
Вы не можете отвечать на сообщения
Вы не можете редактировать свои сообщения
Вы не можете удалять свои сообщения
Вы не можете добавлять вложения

Перейти:  
Для Мосгорсуда, Роскомнадзора и рекламодателей: mosgorsud-torrent[собачка]yandex.ru
 Вход
ppkBB3cker v.2 © 2008-2014 @ PPK
[ Time : 0.035s | 16 Queries | GZIP : Off ]

Торрент трекер RUTOR.IN, Не можете зайти на rutor.org? Какой новый адрес рутор? Какое зеркало рутор? Не работает rutor.org и зеркала? Тогда наш торрент специально для вас. Rutor.in неофициальное зеркало rutor. В случае если у Вас заблокирован rutor или вдруг Вы не можете на него зайти, то Вы без труда сможете скачать бесплатно и без рекламы последние новинки кино, игр, сериалов и прочего у нас, на Rutor.in. Не нужно использовать прокси, чтобы зайти на рутор, достаточно воспользоваться нашим ресурсом. Все новые фильмы, игры, сериалы, книги и музыка за 2013 и 2014 годы через торрент бесплатно. Скачивайте фильмы в хорошем качестве, игры для пк, xbox, playstation без регистрации. У нас вы найдете новые Зарубежные сериалы и Русские сериалы 2013, 2014, 2015 годов. Оставайтесь с нами, качайте любимые фильмы, игры, сериалы, книги и музыку.