img image001 image001 image001 image001 image001 image001 image001 image001 image001 image001 image001 image001 image001 image001 image001

Planets Sun Sun Sun
Статистика раздачи
Автор: PriZraK | Размер: 10.78 ГБ | Добавлен: 15 фев 2014
Раздают: 407    Качают: 227
Скачать торрент
Скачать торрент
Описание торрента

СообщениеДобавлено: 15 фев 2014 




Страна: Россия, Украина / Россия 1
Жанр: военный, драма
Год выпуска: 2013
Продолжительность: 16 x ~00:43:30

Перевод: не требуется
Cубтитры: нет
Оригинальная аудиодорожка: русский

Режиссер: Валерий Шалыга

В ролях: Александр Пашков, Йоханес Габриель, Любовь Тихомирова, Дарья Баранова, Ольга Олексий, Владимир Башкиров, Егор Баринов, Анатолий Гущин, Нина Усатова, Андрей Саминин...

Описание: Сериал о событиях 1943 года, когда после разгромных событий под Сталинградом немецкие войска готовятся к реваншу. На оккупированную немецкими войсками территорию выбросили советскую десантную группу.
Боевым заданием погибшей разведгруппы было разведать планы готовящегося немецкого контрнаступления, которое должно было исходить или из Белоруссии, или на Курском направлении. Вся группа гибнет, и лишь одна девушка-радистка Катя остается в живых…



Качество: DVDRip-AVC (2 x DVD9 R5)
Формат: MKV

Видео: 720x572@1024x572 (16:9), 25.000 fps, H264 ~ 2006 kbps avg, 0.195 bit/pixel
Аудио: 48 kHz, АС3 2 ch, 192 kbps, русский

Раздача от:
Общее
Полное имя : 1943.2013.O.DVDRip-AVC_[New-Team]_by_avproh\01.mkv
Формат : Matroska
Версия формата : Version 4 / Version 2
Размер файла : 682 Мбайт
Продолжительность : 43 м.
Общий поток : 2200 Кбит/сек
Дата кодирования : UTC 2014-02-12 11:53:29
Программа кодирования : mkvmerge v6.7.0 ('Back to the Ground') 64bit built on Jan 8 2014 15:10:52
Библиотека кодирования : libebml v1.3.0 + libmatroska v1.4.1

Видео
Идентификатор : 1
Формат : AVC
Формат/Информация : Advanced Video Codec
Профиль формата : High@L4.1
Параметр CABAC формата : Да
Параметр ReFrames формата : 6 кадров
Идентификатор кодека : V_MPEG4/ISO/AVC
Продолжительность : 43 м.
Битрейт : 2006 Кбит/сек
Ширина : 720 пикселей
Высота : 572 пикселя
Соотношение сторон : 16:9
Режим частоты кадров : Постоянный
Частота кадров : 25,000 кадров/сек
Цветовое пространство : YUV
Субдискретизация насыщенности : 4:2:0
Битовая глубина : 8 бит
Тип развёртки : Прогрессивная
Бит/(Пиксели*Кадры) : 0.195
Размер потока : 609 Мбайт (89%)
Библиотека кодирования : x264 core 138 r2356 a1d3d17
Настройки программы : cabac=1 / ref=6 / deblock=1:-2:-1 / analyse=0x3:0x113 / me=umh / subme=10 / psy=1 / psy_rd=1.00:0.05 / mixed_ref=1 / me_range=32 / chroma_me=1 / trellis=2 / 8x8dct=1 / cqm=0 / deadzone=21,11 / fast_pskip=0 / chroma_qp_offset=-3 / threads=9 / lookahead_threads=1 / sliced_threads=0 / nr=0 / decimate=0 / interlaced=0 / bluray_compat=0 / constrained_intra=0 / bframes=8 / b_pyramid=2 / b_adapt=2 / b_bias=0 / direct=3 / weightb=1 / open_gop=0 / weightp=2 / keyint=250 / keyint_min=25 / scenecut=40 / intra_refresh=0 / rc=2pass / mbtree=0 / bitrate=2006 / ratetol=1.0 / qcomp=0.60 / qpmin=0 / qpmax=69 / qpstep=4 / cplxblur=20.0 / qblur=0.5 / ip_ratio=1.40 / pb_ratio=1.30 / aq=1:1.00
Язык : Russian
Default : Да
Forced : Нет

Аудио
Идентификатор : 2
Формат : AC-3
Формат/Информация : Audio Coding 3
Расширение режима : CM (complete main)
Параметр Endianness формата : Big
Идентификатор кодека : A_AC3
Продолжительность : 43 м.
Вид битрейта : Постоянный
Битрейт : 192 Кбит/сек
Каналы : 1 канал
Расположение каналов : Front: C
Частота : 48,0 КГц
Битовая глубина : 16 бит
Метод сжатия : С потерями
Размер потока : 59,5 Мбайт (9%)
Язык : Russian
Default : Да
Forced : Нет







   Похожие торренты   Торрент   Размер 
В этой теме нет новых непрочитанных сообщений. 1943 [01-16 из 16] (2013) DVDRip от New-Team | лицензия

785 | 361

10.79 ГБ

В этой теме нет новых непрочитанных сообщений. 1943 [01-16 из 16] (2013) 2xDVD9 R5 от New-Team | лицензия

106 | 26

14.63 ГБ

В этой теме нет новых непрочитанных сообщений. Актриса (1943) DVDRip от New-Team

29 | 8

1.09 ГБ

В этой теме нет новых непрочитанных сообщений. Радуга (1943) DVDRip-AVC от New-Team

12 | 2

1.46 ГБ

В этой теме нет новых непрочитанных сообщений. Жди меня (1943) DVDRip от New-Team

10 | 7

1.45 ГБ

В этой теме нет новых непрочитанных сообщений. Сталинград (1943) DVDRip от New-Team

152 | 3

1.09 ГБ

В этой теме нет новых непрочитанных сообщений. Актриса (1943) DVDRip от New-Team

29 | 8

763.68 МБ




Вы не можете начинать темы
Вы не можете отвечать на сообщения
Вы не можете редактировать свои сообщения
Вы не можете удалять свои сообщения
Вы не можете добавлять вложения

Перейти:  
Для Мосгорсуда, Роскомнадзора и рекламодателей: mosgorsud-torrent[собачка]yandex.ru
 Вход
ppkBB3cker v.2 © 2008-2014 @ PPK
[ Time : 0.071s | 16 Queries | GZIP : Off ]

cron