img image001 image001 image001 image001 image001 image001 image001 image001 image001 image001 image001 image001 image001 image001 image001

Planets Sun Sun Sun
Статистика раздачи
Автор: Nickolas3434 | Размер: 18.28 ГБ | Добавлен: 18 фев 2014, 22:42
Раздают: 47    Качают: 50
Скачать торрент
Скачать торрент
Описание торрента

СообщениеДобавлено: 18 фев 2014, 22:42 

Информация о фильме
Название: Аси
Оригинальное название: Asi
Год выхода: 2007-2009
Жанр: Драма, мелодрама
Режиссер: Cevdet Mercan
В ролях: Туба Буйукустун, Мурат Йылдырым, Четин Текиндор, Нур Сюрер, Сельма Эргеч, Джемаль Хюнал, Tulay Gunal, Tulay Bursa, Aslihan Guner, Нечметтин Чобаноглу

О фильме:
Аси — дочь почти разорившегося фермера. Ее отец ради сохранения своих земель когда-то отказался от диплома и посвятил свою жизнь им. Но сейчас наступило не лучшее время, и он вынужден бороться за то, чтобы выжить на земле, которой его семья владеет на протяжении трех поколений, которую возделывает, в которую вкладывает всю свою жизнь и от которой питается.

Красавица Аси так же, как и ее отец, привязана к этой земле. Она остро чувствует и понимает язык природы, язык земли. Даже имя ей дано было благодаря реке Аси, которая протекает в той же местности и по преданиям несет воды вспять.

И вот в родные места спустя годы возвращается молодой человек — богатый, красивый и гордый. В землях, где живет Аси, похоронена тайна Демира и его семьи. Когда Аси и Демир знакомятся, они даже не подозревают, что эта тайна вскоре станет причиной множества конфликтов между двумя семьями, дуэлей, и перевернет вверх дном их прошлую жизнь, сделав невозможным любовь…
Страна: Турция
Студия: Sis Yapim
Продолжительность: ~1:30:00/серия
Перевод: Профессиональный двухголосый закадровый (КТК)

Файл
Кодек: XivD
Качество: SATRip
Видео: 720x400, 25 fps, 1100 kbps, 0.153 bits/pixel
Звук:
Аудио 1 (рус): 48.0 kHz, MPEG Layer 3, 2 ch, 128.00 kbps
Аудио 2 (тур): 48.0 kHz, MPEG Layer 3, 2 ch, 192.00 kbps
Субтитры: Нет
Format : AVI
Format/Info : Audio Video Interleave
File size : 991 MiB
Duration : 1h 36mn
Overall bit rate : 1 434 Kbps
Writing application : VirtualDubModRus 1.5.10.2 (build 2542/release)
Writing library : VirtualDubMod build 2542/release

Video
ID : 0
Format : MPEG-4 Visual
Format profile : Advanced Simple@L5
Format settings, BVOP : 2
Format settings, QPel : No
Format settings, GMC : No warppoints
Format settings, Matrix : Default (H.263)
Muxing mode : Packed bitstream
Codec ID : XVID
Codec ID/Hint : XviD
Duration : 1h 36mn
Bit rate : 1 099 Kbps
Width : 720 pixels
Height : 400 pixels
Display aspect ratio : 1.85:1
Frame rate : 25.000 fps
Color space : YUV
Chroma subsampling : 4:2:0
Bit depth : 8 bits
Scan type : Progressive
Compression mode : Lossy
Bits/(Pixel*Frame) : 0.153
Stream size : 760 MiB (77%)
Writing library : XviD 1.2.1 (UTC 2008-12-04)

Audio #1
ID : 1
Format : MPEG Audio
Format version : Version 1
Format profile : Layer 3
Mode : Joint stereo
Mode extension : MS Stereo
Codec ID : 55
Codec ID/Hint : MP3
Duration : 1h 36mn
Bit rate mode : Constant
Bit rate : 128 Kbps
Channel count : 2 channels
Sampling rate : 48.0 KHz
Compression mode : Lossy
Stream size : 88.4 MiB (9%)
Alignment : Split accross interleaves
Interleave, duration : 40 ms (1.00 video frame)
Interleave, preload duration : 500 ms

Audio #2
ID : 2
Format : MPEG Audio
Format version : Version 1
Format profile : Layer 3
Mode : Joint stereo
Mode extension : MS Stereo
Codec ID : 55
Codec ID/Hint : MP3
Duration : 1h 36mn
Bit rate mode : Constant
Bit rate : 192 Kbps
Channel count : 2 channels
Sampling rate : 48.0 KHz
Compression mode : Lossy
Stream size : 133 MiB (13%)
Alignment : Aligned on interleaves
Interleave, duration : 40 ms (1.00 video frame)
Interleave, preload duration : 504 ms




Релиз от: Габриэль87



   Похожие торренты   Торрент   Размер 
В этой теме нет новых непрочитанных сообщений. Успеть за 24 часа [01х51-67] (2015) WEBRip от Files-х

2 | 4

9.97 ГБ

В этой теме нет новых непрочитанных сообщений. Успеть за 24 часа [01х51-64] (2015) WEBRip от Files-х

9 | 4

8.2 ГБ

В этой теме нет новых непрочитанных сообщений. Успеть за 24 часа [01х51-70] (2015) WEBRip от Files-х

3 | 0

11.73 ГБ

В этой теме нет новых непрочитанных сообщений. Успеть за 24 часа [01х51-52] (2015) WEBRip от Files-х

1 | 3

1.77 ГБ

В этой теме нет новых непрочитанных сообщений. Успеть за 24 часа [01х51-52] (2015) WEBRip от Files-х

0 | 2

1.18 ГБ

В этой теме нет новых непрочитанных сообщений. Успеть за 24 часа [01х51-83] (2015) WEBRip от Files-х

3 | 5

19.4 ГБ

В этой теме нет новых непрочитанных сообщений. Успеть за 24 часа [01х51-65] (2015) WEBRip от Files-х

7 | 0

8.79 ГБ




Вы не можете начинать темы
Вы не можете отвечать на сообщения
Вы не можете редактировать свои сообщения
Вы не можете удалять свои сообщения
Вы не можете добавлять вложения

Перейти:  
Для Мосгорсуда, Роскомнадзора и рекламодателей: mosgorsud-torrent[собачка]yandex.ru
Настройки
ppkBB3cker v.2 © 2008-2014 @ PPK
[ Time : 0.064s | 15 Queries | GZIP : Off ]
CGP [Extreme] output time : 0.00011s | 0 Queries | GZIP : Off

Торрент трекер RUTOR.IN, Не можете зайти на rutor.org? Какой новый адрес рутор? Какое зеркало рутор? Не работает rutor.org и зеркала? Тогда наш торрент специально для вас. Rutor.in неофициальное зеркало rutor. В случае если у Вас заблокирован rutor или вдруг Вы не можете на него зайти, то Вы без труда сможете скачать бесплатно и без рекламы последние новинки кино, игр, сериалов и прочего у нас, на Rutor.in. Не нужно использовать прокси, чтобы зайти на рутор, достаточно воспользоваться нашим ресурсом. Все новые фильмы, игры, сериалы, книги и музыка за 2013 и 2014 годы через торрент бесплатно. Скачивайте фильмы в хорошем качестве, игры для пк, xbox, playstation без регистрации. У нас вы найдете новые Зарубежные сериалы и Русские сериалы 2013, 2014, 2015 годов. Оставайтесь с нами, качайте любимые фильмы, игры, сериалы, книги и музыку.