img image001 image001 image001 image001 image001 image001 image001 image001 image001 image001 image001 image001 image001 image001 image001

Planets Sun Sun Sun
Статистика раздачи
Автор: Nickolas3434 | Размер: 4.6 ГБ | Добавлен: 20 фев 2014
Раздают: 226    Качают: 113
Скачать торрент
Скачать торрент
Описание торрента

СообщениеДобавлено: 20 фев 2014 

Информация о фильме
Название: Леди-детектив мисс Фрайни Фишер
Оригинальное название: Miss Fisher's Murder Mysteries
Год выхода: 2012
Жанр: драма, криминал, детектив
Режиссер: Тони Тилс, Даина Рейд, Дэвид Цезар
В ролях: Эсси Дэвис, Нэйтан Пейдж, Хьюго Джонстон-Барт, Эшли Каммингс, Ричард Блиф, Трэвис МакМахон, Энтони Шарп, Тэмми МакИнтош, Мириам Маргулис, Руби Рис Уэмисс

О фильме:
Фильм о первой леди-детективе Мельбурна 20-х годов прошлого века мисс Фрайни Фишер, любительнице приключений и красивых мужчин, которая с легкостью управляет не только автомобилем, но и самолётом, всегда носит при себе пистолет с перламутровой ручкой и острый нож. Ещё она прекрасно танцует танго, наверняка на этом список её талантов не заканчивается, и уж точно, что все эти навыки неизменно помогают ей справиться с самыми запутанными делами…
Официальный сайт

Страна: Австралия
Студия: ABC1
Продолжительность: ~00:55:00 серия
Перевод: Любительский (многоголосый закадровый) (ViruseProject)

Файл
Кодек: XviD / MP3
Качество: DVDRip
Видео: XviD, 624x352 (16:9), 25.000 fps, 896 Kbps (0.163 bit/pixel)
Звук: MP3, 48.0 KHz, 2 ch, 192 Kbps, CBR

Sample
General
Complete name : /Miss.Fisher's.Murder.Mysteries.S02/Miss.Fisher's.Murder.Mysteries.S02E01.ViruseProject.avi
Format : AVI
Format/Info : Audio Video Interleave
File size : 429 MiB
Duration : 54mn 36s
Overall bit rate : 1 098 Kbps
Writing application : VirtualDubMod 1.5.10.2 (build 2540/release)
Writing library : VirtualDubMod build 2540/release

Video
ID : 0
Format : MPEG-4 Visual
Format profile : Advanced Simple@L5
Format settings, BVOP : 1
Format settings, QPel : No
Format settings, GMC : No warppoints
Format settings, Matrix : Default (MPEG)
Codec ID : XVID
Codec ID/Hint : XviD
Duration : 54mn 36s
Bit rate : 896 Kbps
Width : 624 pixels
Height : 352 pixels
Display aspect ratio : 16:9
Frame rate : 25.000 fps
Color space : YUV
Chroma subsampling : 4:2:0
Bit depth : 8 bits
Scan type : Progressive
Compression mode : Lossy
Bits/(Pixel*Frame) : 0.163
Stream size : 350 MiB (82%)
Writing library : XviD 1.2.1 (UTC 2008-12-04)

Audio
ID : 1
Format : MPEG Audio
Format version : Version 1
Format profile : Layer 3
Codec ID : 55
Codec ID/Hint : MP3
Duration : 54mn 36s
Bit rate mode : Constant
Bit rate : 192 Kbps
Channel(s) : 2 channels
Sampling rate : 48.0 KHz
Compression mode : Lossy
Stream size : 75.0 MiB (17%)
Alignment : Split accross interleaves
Interleave, duration : 40 ms (1.00 video frame)
Interleave, preload duration : 500 ms



   Похожие торренты   Торрент   Размер 
В этой теме нет новых непрочитанных сообщений. Леди-детектив мисс Фрайни Фишер / Miss Fisher's Murder Mysteries [02x01-10] (2012) DVDRip | L

0 | 1

4.18 ГБ

В этой теме нет новых непрочитанных сообщений. Леди-детектив мисс Фрайни Фишер / Miss Fisher's Murder Mysteries [S02] (2012) DVDRip | L

147 | 66

5.43 ГБ

В этой теме нет новых непрочитанных сообщений. Леди-детектив мисс Фрайни Фишер / Miss Fisher's Murder Mysteries [S01] (2012) DVDRip | P

17 | 5

7.82 ГБ

В этой теме нет новых непрочитанных сообщений. Леди-детектив мисс Фрайни Фишер / Miss Fisher's Murder Mysteries [S01-02] (2012-2013) DVDRip, HDRip | P

152 | 113

15.92 ГБ

В этой теме нет новых непрочитанных сообщений. Леди-детектив мисс Фрайни Фишер / Miss Fisher's Murder Mysteries [S01] (2012) HDTVRip | ViruseProject | L

11 | 4

5.8 ГБ

В этой теме нет новых непрочитанных сообщений. Леди-детектив мисс Фрайни Фишер / Miss Fisher's Murder Mysteries [s03] (2015) WEB-DLRip | ViruseProject

280 | 78

4.71 ГБ

В этой теме нет новых непрочитанных сообщений. Леди-детектив мисс Фрайни Фишер / Miss Fisher's Murder Mysteries [03x01-06 из 13] (2015) WEB-DLRip | ViruseProject

53 | 20

3.53 ГБ




Вы не можете начинать темы
Вы не можете отвечать на сообщения
Вы не можете редактировать свои сообщения
Вы не можете удалять свои сообщения
Вы не можете добавлять вложения

Перейти:  
Для Мосгорсуда, Роскомнадзора и рекламодателей: mosgorsud-torrent[собачка]yandex.ru
 Вход
ppkBB3cker v.2 © 2008-2014 @ PPK
[ Time : 0.524s | 16 Queries | GZIP : Off ]

Торрент трекер RUTOR.IN, Не можете зайти на rutor.org? Какой новый адрес рутор? Какое зеркало рутор? Не работает rutor.org и зеркала? Тогда наш торрент специально для вас. Rutor.in неофициальное зеркало rutor. В случае если у Вас заблокирован rutor или вдруг Вы не можете на него зайти, то Вы без труда сможете скачать бесплатно и без рекламы последние новинки кино, игр, сериалов и прочего у нас, на Rutor.in. Не нужно использовать прокси, чтобы зайти на рутор, достаточно воспользоваться нашим ресурсом. Все новые фильмы, игры, сериалы, книги и музыка за 2013 и 2014 годы через торрент бесплатно. Скачивайте фильмы в хорошем качестве, игры для пк, xbox, playstation без регистрации. У нас вы найдете новые Зарубежные сериалы и Русские сериалы 2013, 2014, 2015 годов. Оставайтесь с нами, качайте любимые фильмы, игры, сериалы, книги и музыку.