img image001 image001 image001 image001 image001 image001 image001 image001 image001 image001 image001 image001 image001 image001 image001

Planets Sun Sun Sun
Статистика раздачи
Автор: Nickolas3434 | Размер: 2.73 ГБ | Добавлен: 26 фев 2014
Раздают: 4    Качают: 2
Скачать торрент
Скачать торрент
Описание торрента

СообщениеДобавлено: 26 фев 2014 

Информация о фильме
Название: Флеминг
Оригинальное название: Fleming
Год выхода: 2013
Жанр: драма, биография
Режиссер: Мат Уайткросс / Mat Whitecross
В ролях: Доминик Купер, Руперт Эванс, Лара Пулвер, Камилла Разерфорд, Пип Торренс, Анна Чэнселлор, Лесли Мэнвилл, Сэмюэл Уэст, Ли Асквит-Коу, Дин Леннокс Келли

О фильме:
Мало кто знает, но жизнь одного из самых успешных романистов в истории, Иэна Флеминга, была столь же захватывающей и насыщенной событиями, как и жизнь героя его произведений — Джеймса Бонда.
Эта история начинается в 1938 году, в Лондоне, в разгар предвоенного кризиса. Несмотря на витающее в воздухе напряжение, это было время шумных джаз-клубов, элегантной одежды и шикарных автомобилей. Поэтому сериал получился очень стильным по форме. А содержанием стала история будущего писателя, который только-только завербовался в разведку и принимал участие в самых опасных операциях, организованных против нацистов. В основу драмы были положены письма жены Флеминга, его собственные истории, а также книга его персонального биографа Джона Пирсона.


Страна: Великобритания
Студия: BBC America, Ecosse Films, Sky Atlantic
Продолжительность: Серия ~00:45:00
Перевод: Профессиональный (многоголосый, закадровый) LostFilm

Файл
Кодек: AVC, (High@L4.1)
Качество: WEB-DLRip-AVC
Видео: AVC, 1024 x 576, ~1992 kbps, 25 fps
Звук: AC-3, 2 ch, 192 kbps



General
Unique ID : 196395080408104024676359848580423140826 (0x93C0510E96489C8F926068D0A41CC5DA)
Complete name : F:СериалFleming.(S01).576р.[-=DoMiNo=-]Fleming.S01E01.LostFilm.TV.[WEB-DLRip-AVC].mkv
Format : Matroska
Format version : Version 2
File size : 698 MiB
Duration : 44mn 39s
Overall bit rate : 2 186 Kbps
Encoded date : UTC 2014-02-25 07:43:10
Writing application : mkvmerge v6.1.0 ('Old Devil') built on Mar 4 2013 09:10:42
Writing library : libebml v1.3.0 + libmatroska v1.4.0

Video
ID : 1
Format : AVC
Format/Info : Advanced Video Codec
Format profile : High@L4.1
Format settings, CABAC : Yes
Format settings, ReFrames : 12 frames
Codec ID : V_MPEG4/ISO/AVC
Duration : 44mn 39s
Bit rate : 1 991 Kbps
Width : 1 024 pixels
Height : 576 pixels
Display aspect ratio : 16:9
Frame rate mode : Constant
Frame rate : 25.000 fps
Color space : YUV
Chroma subsampling : 4:2:0
Bit depth : 8 bits
Scan type : Progressive
Bits/(Pixel*Frame) : 0.135
Stream size : 623 MiB (89%)
Writing library : x264 core 130 r2273 b3065e6
Encoding settings : cabac=1 / ref=12 / deblock=1:-1:-1 / analyse=0x3:0x133 / me=umh / subme=11 / psy=1 / psy_rd=1.00:0.10 / mixed_ref=1 / me_range=24 / chroma_me=1 / trellis=2 / 8x8dct=1 / cqm=0 / deadzone=21,11 / fast_pskip=0 / chroma_qp_offset=-6 / threads=6 / lookahead_threads=6 / sliced_threads=0 / slices=4 / nr=0 / decimate=0 / interlaced=0 / bluray_compat=0 / constrained_intra=0 / bframes=4 / b_pyramid=2 / b_adapt=2 / b_bias=0 / direct=3 / weightb=1 / open_gop=1 / weightp=2 / keyint=240 / keyint_min=23 / scenecut=40 / intra_refresh=0 / rc_lookahead=60 / rc=2pass / mbtree=1 / bitrate=1991 / ratetol=1.0 / qcomp=0.60 / qpmin=0 / qpmax=69 / qpstep=4 / cplxblur=20.0 / qblur=0.5 / ip_ratio=1.40 / aq=2:1.50
Default : Yes
Forced : No

Audio
ID : 2
Format : AC-3
Format/Info : Audio Coding 3
Mode extension : CM (complete main)
Format settings, Endianness : Big
Codec ID : A_AC3
Duration : 44mn 39s
Bit rate mode : Constant
Bit rate : 192 Kbps
Channel(s) : 2 channels
Channel positions : Front: L R
Sampling rate : 48.0 KHz
Bit depth : 16 bits
Compression mode : Lossy
Stream size : 61.3 MiB (9%)
Default : Yes
Forced : No



   Похожие торренты   Торрент   Размер 
В этой теме нет новых непрочитанных сообщений. Флеминг / Fleming [S01] (2014) WEB-DLRip | LostFilm

160 | 80

1.7 ГБ

В этой теме нет новых непрочитанных сообщений. Флеминг / Fleming [S01] (2014) WEB-DLRip 1080p | LostFilm

54 | 30

7.43 ГБ

В этой теме нет новых непрочитанных сообщений. Флеминг / Fleming [01x01-02 из 04] (2014) WEB-DLRip | LostFilm

350 | 53

912.31 МБ

В этой теме нет новых непрочитанных сообщений. Флеминг / Fleming [01x01-03 из 04] (2014) WEB-DLRip | LostFilm

301 | 203

1.27 ГБ

В этой теме нет новых непрочитанных сообщений. Флеминг / Fleming [S01] (2014) WEB-DLRip от Scarabey | LostFilm

24 | 19

2.94 ГБ

В этой теме нет новых непрочитанных сообщений. Флеминг / Fleming [01x01-03 из 04] (2014) WEB-DLRip 1080p | LostFilm

106 | 77

5.55 ГБ

В этой теме нет новых непрочитанных сообщений. Флеминг / Fleming [S01] (2014) WEB-DLRip 720p от MediaClub | LostFilm

41 | 10

6 ГБ




Вы не можете начинать темы
Вы не можете отвечать на сообщения
Вы не можете редактировать свои сообщения
Вы не можете удалять свои сообщения
Вы не можете добавлять вложения

Перейти:  
Для Мосгорсуда, Роскомнадзора и рекламодателей: mosgorsud-torrent[собачка]yandex.ru
 Вход
ppkBB3cker v.2 © 2008-2014 @ PPK
[ Time : 0.091s | 16 Queries | GZIP : Off ]

cron