img image001 image001 image001 image001 image001 image001 image001 image001 image001 image001 image001 image001 image001 image001 image001

Planets Sun Sun Sun
Статистика раздачи
Автор: Nickolas3434 | Размер: 3.76 ГБ | Добавлен: 01 мар 2014
Раздают: 2306    Качают: 478
Скачать торрент
Скачать торрент
Описание торрента

СообщениеДобавлено: 01 мар 2014 

Страна: Россия
Производство: Кинокомпания ВГТРК
Жанр: Боевик
Год выпуска: 2013

Продолжительность: 8 x ~ 00:45:00
Язык:Русский
Режиссер: Андрей Щербинин
В ролях: Евгений Сидихин, Сергей Воробьёв, Петр Логачев, Полина Сидихина, Юрий Уткин, Руслан Кацагаджиев, Евгений Кушпель, Андрей Перович, Юрий Томилин, Геннадий Казачков
Описание: В центре событий — боевая группа наёмных военных под названием «Стая». Стив, Бес, Шаман, Ронин и Лаванда — военные профессионалы с большим опытом, работающие под прикрытием российских спецслужб.



Исходник: DVD9 R5

Тип релиза: DVDRip

Контейнер: AVI
Видео: XviD, ~ 1327 Кбит/с, 720х400
Аудио: АС3, 2 ch, 192 Кбит/с
Общее
Полное имя : D:1АААПозывной Стая1 серия.avi
Формат : AVI
Формат/Информация : Audio Video Interleave
Размер файла : 481 Мбайт
Продолжительность : 44 м.
Общий поток : 1525 Кбит/сек
Программа кодирования : VirtualDubMod 1.5.10.3 | www.virtualdub-fr.org || (build 2550/release)
Библиотека кодирования : VirtualDubMod build 2550/release

Видео
Идентификатор : 0
Формат : MPEG-4 Visual
Профиль формата : Advanced Simple@L5
Параметр BVOP формата : 2
Параметр QPel формата : Нет
Параметр GMC формата : Без точки перехода
Параметр матрицы формата : Default (MPEG)
Режим смешивания : Сжатый битовый поток
Идентификатор кодека : XVID
Идентификатор кодека/Подсказка : XviD
Продолжительность : 44 м.
Битрейт : 1323 Кбит/сек
Ширина : 720 пикселей
Высота : 400 пикселей
Соотношение сторон : 16:9
Частота кадров : 23,976 кадра/сек
Цветовое пространство : YUV
Субдискретизация насыщенности : 4:2:0
Битовая глубина : 8 бит
Тип развёртки : Прогрессивная
Метод сжатия : С потерями
Бит/(Пиксели*Кадры) : 0.192
Размер потока : 417 Мбайт (87%)
Библиотека кодирования : XviD 1.2.1 (UTC 2008-12-04)

Аудио
Идентификатор : 1
Формат : AC-3
Формат/Информация : Audio Coding 3
Расширение режима : CM (complete main)
Параметр Endianness формата : Big
Идентификатор кодека : 2000
Продолжительность : 44 м.
Вид битрейта : Постоянный
Битрейт : 192 Кбит/сек
Каналы : 2 канала
Расположение каналов : Front: L R
Частота : 48,0 КГц
Битовая глубина : 16 бит
Метод сжатия : С потерями
Размер потока : 60,5 Мбайт (13%)
Выравнивание : Разделение по промежуткам
Продолжительность промежутка : 42 мс. (1,00 видеокадр)
Время предзагрузки промежутка : 500 мс.





Релиз группа:

Автор рипа:



   Похожие торренты   Торрент   Размер 
В этой теме нет новых непрочитанных сообщений. Позывной "Стая" [01-04 из 04] (2013) SATRip от Files-x

324 | 28

5.45 ГБ

В этой теме нет новых непрочитанных сообщений. Позывной "Стая" [01-04 из 04] (2013) SATRip

77 | 13

3.98 ГБ

В этой теме нет новых непрочитанных сообщений. Позывной "Стая" 2 [01 из 04] (2014) SATRip от Files-x

2407 | 138

2.15 ГБ

В этой теме нет новых непрочитанных сообщений. Позывной "Стая" 2 [01 из 04] (2014) SATRip от Files-x

10 | 2

550.59 МБ

В этой теме нет новых непрочитанных сообщений. Позывной "Стая" 2 [01-12 из 12] (2014) DVBRip-AVC

1157 | 155

4.73 ГБ

В этой теме нет новых непрочитанных сообщений. Вольная Стая - Стая (2007) MP3

1 | 2

94.89 МБ

В этой теме нет новых непрочитанных сообщений. Позывной Бэт-21 / Bat*21 (1988) DVDRip от brazolargo

21 | 5

1.46 ГБ




Вы не можете начинать темы
Вы не можете отвечать на сообщения
Вы не можете редактировать свои сообщения
Вы не можете удалять свои сообщения
Вы не можете добавлять вложения

Перейти:  
Для Мосгорсуда, Роскомнадзора и рекламодателей: mosgorsud-torrent[собачка]yandex.ru
 Вход
ppkBB3cker v.2 © 2008-2014 @ PPK
[ Time : 0.039s | 17 Queries | GZIP : Off ]

Торрент трекер RUTOR.IN, Не можете зайти на rutor.org? Какой новый адрес рутор? Какое зеркало рутор? Не работает rutor.org и зеркала? Тогда наш торрент специально для вас. Rutor.in неофициальное зеркало rutor. В случае если у Вас заблокирован rutor или вдруг Вы не можете на него зайти, то Вы без труда сможете скачать бесплатно и без рекламы последние новинки кино, игр, сериалов и прочего у нас, на Rutor.in. Не нужно использовать прокси, чтобы зайти на рутор, достаточно воспользоваться нашим ресурсом. Все новые фильмы, игры, сериалы, книги и музыка за 2013 и 2014 годы через торрент бесплатно. Скачивайте фильмы в хорошем качестве, игры для пк, xbox, playstation без регистрации. У нас вы найдете новые Зарубежные сериалы и Русские сериалы 2013, 2014, 2015 годов. Оставайтесь с нами, качайте любимые фильмы, игры, сериалы, книги и музыку.