img image001 image001 image001 image001 image001 image001 image001 image001 image001 image001 image001 image001 image001 image001 image001

Planets Sun Sun Sun
Статистика раздачи
Автор: Nickolas3434 | Размер: 2.65 ГБ | Добавлен: 01 мар 2014
Раздают: 111    Качают: 27
Скачать торрент
Скачать торрент
Описание торрента

СообщениеДобавлено: 01 мар 2014 

Информация о фильмеФранция, 1788 1/2
Оригинальное название: 1788... et demi
Год выхода: 2010
Жанр: Исторический
Режиссер: Оливье Гиньяр
В ролях: Сэм Карманн, Жюли Вуазен, Лу де Лааж, Камилла Кларис, Юбер Кунде, Брюно Дебрандт, Франсуа Лорике, Наташа Линдинжер, Филипп Дюкло, Маива Паскуали

О фильме: 1788 год. До Великой французской революции — несколько месяцев. Граф Франсуа де Сент-Азюр, изобретатель и военный, живет беспечно в своем поместье с дочерьми — Виктуар, Полиной и Шарлоттой. Граф создает и испытывает пушки, которые должны разгромить английский флот. Дочери находят развлечения, каждая в своем: Виктуар — в науке и оккультизме, Шарлотта — в овладении оружием, Полина в чувственных наслаждениях. Никто не замечает настроений крестьян, пока не исчезает юная служанка Нинон.



Страна: Франция
Студия: DEMD Productions
Продолжительность: 6 х ~ 00:50:00
Перевод: Профессиональный многоголосый
Файл
Тип релиза: AVI
Видео: XviD, ~ 1229 Кбит/с, 720х400
Аудио: АС3, 2 ch, 192 Кбит/с

Семпл
Общее
Полное имя : D:1ААА1 серия.avi
Формат : AVI
Формат/Информация : Audio Video Interleave
Размер файла : 451 Мбайт
Продолжительность : 44 м.
Общий поток : 1427 Кбит/сек
Программа кодирования : VirtualDubMod 1.5.10.3 | www.virtualdub-fr.org || (build 2550/release)
Библиотека кодирования : VirtualDubMod build 2550/release

Видео
Идентификатор : 0
Формат : MPEG-4 Visual
Профиль формата : Advanced Simple@L5
Параметр BVOP формата : 2
Параметр QPel формата : Нет
Параметр GMC формата : Без точки перехода
Параметр матрицы формата : Default (MPEG)
Режим смешивания : Сжатый битовый поток
Идентификатор кодека : XVID
Идентификатор кодека/Подсказка : XviD
Продолжительность : 44 м.
Битрейт : 1226 Кбит/сек
Ширина : 720 пикселей
Высота : 400 пикселей
Соотношение сторон : 16:9
Частота кадров : 23,976 кадра/сек
Цветовое пространство : YUV
Субдискретизация насыщенности : 4:2:0
Битовая глубина : 8 бит
Тип развёртки : Прогрессивная
Метод сжатия : С потерями
Бит/(Пиксели*Кадры) : 0.178
Размер потока : 388 Мбайт (86%)
Библиотека кодирования : XviD 1.2.1 (UTC 2008-12-04)

Аудио
Идентификатор : 1
Формат : AC-3
Формат/Информация : Audio Coding 3
Расширение режима : CM (complete main)
Параметр Endianness формата : Big
Идентификатор кодека : 2000
Продолжительность : 44 м.
Вид битрейта : Постоянный
Битрейт : 192 Кбит/сек
Каналы : 2 канала
Расположение каналов : Front: L R
Частота : 48,0 КГц
Битовая глубина : 16 бит
Метод сжатия : С потерями
Размер потока : 60,7 Мбайт (13%)
Выравнивание : Разделение по промежуткам
Продолжительность промежутка : 42 мс. (1,00 видеокадр)
Время предзагрузки промежутка : 500 мс.




Релиз группа:

Автор рипа:



   Похожие торренты   Торрент   Размер 
В этой теме нет новых непрочитанных сообщений. Demi Lovato - Demi [Deluxe Edition] (2014) MP3

26 | 4

174.42 МБ

В этой теме нет новых непрочитанных сообщений. Баскетбол. Чемпионат мира 2010. Группа D. 4-й тур. Литва - Франция (2010) SATRip

0 | 2

1.03 ГБ

В этой теме нет новых непрочитанных сообщений. Десять с половиной / 10 1/2 / Dix et demi (2010) HDRip от Scarabey

11 | 10

1.45 ГБ

В этой теме нет новых непрочитанных сообщений. Десять с половиной / 10 1/2 / Dix et demi (2010) HDRip от Scarabey

23 | 14

745.89 МБ

В этой теме нет новых непрочитанных сообщений. Lacuna Coil - I Won't Tell You / Gothic Metal (2010) SATRip (HDTVRip) от NovaLan

0 | 7

61.1 МБ

В этой теме нет новых непрочитанных сообщений. Demi Portion - 2 Chez Moi (2017) FLAC

15 | 2

350.07 МБ

В этой теме нет новых непрочитанных сообщений. Крутой папочка / 15 ans et demi (2008) DVDRip | P

5 | 16

1.45 ГБ




Вы не можете начинать темы
Вы не можете отвечать на сообщения
Вы не можете редактировать свои сообщения
Вы не можете удалять свои сообщения
Вы не можете добавлять вложения

Перейти:  
Для Мосгорсуда, Роскомнадзора и рекламодателей: mosgorsud-torrent[собачка]yandex.ru
 Вход
ppkBB3cker v.2 © 2008-2014 @ PPK
[ Time : 0.056s | 16 Queries | GZIP : Off ]

cron