img image001 image001 image001 image001 image001 image001 image001 image001 image001 image001 image001 image001 image001 image001 image001 image001

Planets Sun Sun Sun
Статистика раздачи
Автор: Nickolas3434 | Размер: 7.04 ГБ | Добавлен: 03 мар 2014
Раздают: 281    Качают: 126
Скачать торрент
Скачать торрент
Описание торрента

СообщениеДобавлено: 03 мар 2014 

Название: Викинги
Оригинальное название: Vikings
Год выпуска: 2013
Жанр: Историческая драма, исторические приключения, боевик, викинги
Режиссер: Киаран Доннелли, Йохан Ренк, Кен Джиротти
В ролях: Трэвис Фиммел, Клайв Стэнден, Кэтрин Уинник, Гэбриел Бирн, Джессалин Гилсиг, Густаф Скарсгард, Джефферсон Холл, Джордж Благден, Тадж Мерфи, Диармэйд Мурта

Описание: Сериал расскажет о приключениях Рагнара Лотброка, пытливого, неотразимого человека, всегда ищущего новые миры для завоевания, и об испытаниях, что выпадут у него на пути. Рагнар восстал, чтобы стать королём племён викингов. Норвежская легенда гласит, что он был прямым потомком Одина, бога войны и воинов.

Выпущено: Ирландия, Канада, Irish Film Board, Take 5 Productions, World 2000 Entertainment
Продолжительность: 9 x ~ 00:44:00
Перевод: Профессиональный многоголосый - BaibaKo

Качество: WEB-DLRip
Видео: XviD, ~ 1753 Кбит/с, 720x400
Аудио rus: (АС3, 6 ch, 384 Кбит/с)
Аудио eng: (АС3, 6 ch, 384 Кбит/с)

01. Обряды / Rites of Passage
02. Гнев северян / Wrath of Northmen
03. Обездоленные / Dispossessed
04. Испытание / Trail (24 марта)
05. Набег / Raid (31 марта)
06. Погребение мертвых / Burial of the Dead (7 апреля)
07. Королевский выкуп / A King's Ransom (14 апреля)
08. Жертвоприношение / Sacrifice (21 апреля)
09. Все изменится / All Change (28 апреля)
Полное имя : E:Vikings.s01.tahiyVikings.s01.03.tahiy.avi
Формат : AVI
Формат/Информация : Audio Video Interleave
Размер файла : 802 Мбайт
Продолжительность : 44 м.
Общий поток : 2535 Кбит/сек
Название фильма : Vikings.tahiy
Программа кодирования : VirtualDubMod 1.5.10.3 | www.virtualdub-fr.org || (build 2550/release)

Видео
Идентификатор : 0
Формат : MPEG-4 Visual
Профиль формата : Advanced Simple@L5
Параметр BVOP формата : 1
Параметр QPel формата : Нет
Параметр GMC формата : Без точки перехода
Параметр матрицы формата : Default (MPEG)
Идентификатор кодека : XVID
Идентификатор кодека/Подсказка : XviD
Продолжительность : 44 м.
Битрейт : 1753 Кбит/сек
Ширина : 720 пикселей
Высота : 400 пикселей
Соотношение сторон : 16:9
Частота кадров : 23,976 кадра/сек
Цветовое пространство : YUV
Субдискретизация насыщенности : 4:2:0
Битовая глубина : 8 бит
Тип развёртки : Прогрессивная
Метод сжатия : С потерями
Бит/(Пиксели*Кадры) : 0.254
Размер потока : 554 Мбайт (69%)
Библиотека кодирования : XviD 1.2.1 (UTC 2008-12-04)

Аудио #1
Идентификатор : 1
Формат : AC-3
Формат/Информация : Audio Coding 3
Расширение режима : CM (complete main)
Параметр Endianness формата : Big
Идентификатор кодека : 2000
Продолжительность : 44 м.
Вид битрейта : Постоянный
Битрейт : 384 Кбит/сек
Каналы : 6 каналов
Расположение каналов : Front: L C R, Side: L R, LFE
Частота : 48,0 КГц
Битовая глубина : 16 бит
Метод сжатия : С потерями
Размер потока : 121 Мбайт (15%)
Выравнивание : Разделение по промежуткам
Продолжительность промежутка : 42 мс. (1,00 видеокадр)
Время предзагрузки промежутка : 500 мс.

Аудио #2
Идентификатор : 2
Формат : AC-3
Формат/Информация : Audio Coding 3
Расширение режима : CM (complete main)
Параметр Endianness формата : Big
Идентификатор кодека : 2000
Продолжительность : 44 м.
Вид битрейта : Постоянный
Битрейт : 384 Кбит/сек
Каналы : 6 каналов
Расположение каналов : Front: L C R, Side: L R, LFE
Частота : 48,0 КГц
Битовая глубина : 16 бит
Метод сжатия : С потерями
Размер потока : 121 Мбайт (15%)
Выравнивание : Разделение по промежуткам
Продолжительность промежутка : 42 мс. (1,00 видеокадр)
Время предзагрузки промежутка : 500 мс.






   Похожие торренты   Торрент   Размер 
В этой теме нет новых непрочитанных сообщений. Викинги / Vikings [S01-02] (2013-2014) WEB-DLRip | BaibaKo

47 | 21

14.29 ГБ

В этой теме нет новых непрочитанных сообщений. Викинги / Vikings [S01-02] (2013-2014) WEB-DLRip-AVC | BaibaKo

87 | 26

15.17 ГБ

В этой теме нет новых непрочитанных сообщений. Викинги / Vikings [S01-02] (2013-2014) WEB-DLRip от Generalfilm | КПК | Baibako

169 | 53

3.7 ГБ

В этой теме нет новых непрочитанных сообщений. Викинги / Vikings [02x01-06 из 10] (2014) WEB-DLRip | BaibaKo

208 | 650

4.41 ГБ

В этой теме нет новых непрочитанных сообщений. Викинги / Vikings [02x01-05 из 10] (2014) WEB-DLRip | BaibaKo

330 | 1100

3.7 ГБ

В этой теме нет новых непрочитанных сообщений. Викинги / Vikings [02x01-02 из 10] (2014) WEB-DLRip-AVC | BaibaKo

121 | 132

1.61 ГБ

В этой теме нет новых непрочитанных сообщений. Викинги / Vikings [02x01-02 из 10] (2014) WEB-DLRip | BaibaKo

225 | 270

1.54 ГБ




Вы не можете начинать темы
Вы не можете отвечать на сообщения
Вы не можете редактировать свои сообщения
Вы не можете удалять свои сообщения
Вы не можете добавлять вложения

Перейти:  
 Вход
ppkBB3cker v.2 © 2008-2014 @ PPK
[ Time : 0.037s | 16 Queries | GZIP : Off ]

cron