img image001 image001 image001 image001 image001 image001 image001 image001 image001 image001 image001 image001 image001 image001 image001

Planets Sun Sun Sun
Статистика раздачи
Автор: Nickolas3434 | Размер: 10.13 ГБ | Добавлен: 04 мар 2014
Раздают: 464    Качают: 2621
Скачать торрент
Скачать торрент
Описание торрента

СообщениеДобавлено: 04 мар 2014 


Страна: Россия / Всемирные Русские Студии, ВайТ Медиа
Жанр: драма
Год выпуска: 2013
Продолжительность: 20 x ~00:50:00

Перевод: не требуется
Cубтитры: нет
Оригинальная аудиодорожка: русский

Режиссер: Алексей Чистиков

В ролях: Алексей Чадов, Людмила Свитова, Андрей Чадов, Татьяна Яковенко, Агния Дитковските, Сергей Жигунов, Татьяна Васильева, Виктория Толстоганова, Иван Агапов, Юлия Мельникова...

Описание: Захватывающая история берет свое начало в 2000-х годах, когда семья Назаровых, надеясь на лучшую жизнь, перебирается из провинциального городка в Москву. Здесь отец братьев вкладывает все сбережения в собственный бизнес и открывает магазин с техникой на крупном рынке. Казалось бы, новая жизнь начинает налаживаться, но павильон грабят. В итоге главу семейства находят повесившимся, а его жена сходит с ума, не сумев пережить трагедию.
Понимая, что ограбление — не случайность, братья решают отомстить за родителей, но выбирают противоположные методы. Иван, которого играет Алексей Чадов, решает внедриться в преступный мир, найти всех, кто виновен в гибели отца, и постепенно их уничтожить. Его брат Александр планирует стать юристом, чтобы бороться с преступностью и несправедливостью при помощи закона.
Не только способы достижения цели разводят братьев по разные стороны баррикад: Иван и Александр становятся соперниками, влюбляясь в одних и тех же женщин, а также переживают предательства друзей и союзников. Однако в самые тяжелые и решающие моменты они могут надеяться только друг на друга.



Качество: DVDRip (2 x DVD9 R5)
Формат: AVI

Видео: 688x384 (16:9), 25.000 fps, XViD ~ 1340 kbps avg, 0.203 bit/pixel
Аудио: 48 kHz, АС3 2 ch, 96 kbps, русский

Раздача от:
Общее
Полное имя : Delo.chesti.2013.DVDRip_[New-team]_by_avproh\01.avi
Формат : AVI
Формат/Информация : Audio Video Interleave
Размер файла : 534 Мбайт
Продолжительность : 51 м.
Общий поток : 1445 Кбит/сек
Программа кодирования : VirtualDubModRus 1.5.10.2 (build 2542/release)
Библиотека кодирования : VirtualDubMod build 2542/release

Видео
Идентификатор : 0
Формат : MPEG-4 Visual
Профиль формата : Advanced Simple@L5
Параметр BVOP формата : 1
Параметр QPel формата : Нет
Параметр GMC формата : Без точки перехода
Параметр матрицы формата : Выборочная
Идентификатор кодека : XVID
Идентификатор кодека/Подсказка : XviD
Продолжительность : 51 м.
Битрейт : 1340 Кбит/сек
Ширина : 688 пикселей
Высота : 384 пикселя
Соотношение сторон : 16:9
Частота кадров : 25,000 кадров/сек
Цветовое пространство : YUV
Субдискретизация насыщенности : 4:2:0
Битовая глубина : 8 бит
Тип развёртки : Прогрессивная
Метод сжатия : С потерями
Бит/(Пиксели*Кадры) : 0.203
Размер потока : 495 Мбайт (93%)
Библиотека кодирования : XviD 73

Аудио
Идентификатор : 1
Формат : AC-3
Формат/Информация : Audio Coding 3
Расширение режима : CM (complete main)
Параметр Endianness формата : Big
Идентификатор кодека : 2000
Продолжительность : 51 м.
Вид битрейта : Постоянный
Битрейт : 96,0 Кбит/сек
Каналы : 2 канала
Расположение каналов : Front: L R
Частота : 48,0 КГц
Битовая глубина : 16 бит
Метод сжатия : С потерями
Размер потока : 35,5 Мбайт (7%)
Выравнивание : Разделение по промежуткам
Продолжительность промежутка : 40 мс. (1,00 видеокадр)
Время предзагрузки промежутка : 500 мс.







   Похожие торренты   Торрент   Размер 
В этой теме нет новых непрочитанных сообщений. Дело чести [01-20 из 20] (2013) DVDRip-AVC от New-Team | лицензия

162 | 141

10.49 ГБ

В этой теме нет новых непрочитанных сообщений. Дело чести [01-20 из 20] (2013) 2xDVD9 R5 от New-Team | лицензия

230 | 373

15.57 ГБ

В этой теме нет новых непрочитанных сообщений. Дело чести [01-20 из 20] (2013) DVDRip-AVC от ExKinoRay | Лицензия

120 | 109

24.79 ГБ

В этой теме нет новых непрочитанных сообщений. Дело чести [01-02 из 20] (2013) DVDRip-AVC от ExKinoRay | Лицензия

11 | 42

2.6 ГБ

В этой теме нет новых непрочитанных сообщений. Дело чести [01-06 из 20] (2013) DVDRip-AVC от ExKinoRay | Лицензия

38 | 31

7.7 ГБ

В этой теме нет новых непрочитанных сообщений. Дело чести (2011) DVDRip от КинозалSAT | Лицензия

135 | 32

1.37 ГБ

В этой теме нет новых непрочитанных сообщений. Дело чести [01-20 из 20] (2013) DVDRip от MediaClub | КПК

241 | 98

4.39 ГБ




Вы не можете начинать темы
Вы не можете отвечать на сообщения
Вы не можете редактировать свои сообщения
Вы не можете удалять свои сообщения
Вы не можете добавлять вложения

Перейти:  
Для Мосгорсуда, Роскомнадзора и рекламодателей: mosgorsud-torrent[собачка]yandex.ru
 Вход
ppkBB3cker v.2 © 2008-2014 @ PPK
[ Time : 0.121s | 16 Queries | GZIP : Off ]

Торрент трекер RUTOR.IN, Не можете зайти на rutor.org? Какой новый адрес рутор? Какое зеркало рутор? Не работает rutor.org и зеркала? Тогда наш торрент специально для вас. Rutor.in неофициальное зеркало rutor. В случае если у Вас заблокирован rutor или вдруг Вы не можете на него зайти, то Вы без труда сможете скачать бесплатно и без рекламы последние новинки кино, игр, сериалов и прочего у нас, на Rutor.in. Не нужно использовать прокси, чтобы зайти на рутор, достаточно воспользоваться нашим ресурсом. Все новые фильмы, игры, сериалы, книги и музыка за 2013 и 2014 годы через торрент бесплатно. Скачивайте фильмы в хорошем качестве, игры для пк, xbox, playstation без регистрации. У нас вы найдете новые Зарубежные сериалы и Русские сериалы 2013, 2014, 2015 годов. Оставайтесь с нами, качайте любимые фильмы, игры, сериалы, книги и музыку.