img image001 image001 image001 image001 image001 image001 image001 image001 image001 image001 image001 image001 image001 image001 image001

Planets Sun Sun Sun
Статистика раздачи
Автор: Nickolas3434 | Размер: 1.55 ГБ | Добавлен: 04 мар 2014
Раздают: 22    Качают: 23
Скачать торрент
Скачать торрент
Описание торрента

СообщениеДобавлено: 04 мар 2014 

Дядя / Uncle

Год выпуска: 2014
Страна: Великобритания
Жанр: Комедия
Продолжительность: 00:27:00

Перевод: Субтитры lakdhf (М.Васильев)
Режиссёр: Оливер Рефсон

В ролях: Ник Хелм, Дейзи Хаггард, Эллиот Спеллер - Жило, Сидни Уайт

Описание: Очередной "герой нашего времени", вечно укуренный и не очень трезвый Энди - нечто среднее между лузером и дауншифтером - влачит жалкое (с поправкой на уровень жизни в Англии) существование, когда неожиданно на горизонте появляется 12 - летний племянник, о существовании которого Энди имел весьма смутное представление...
Сериал рассказывает о взаимоотношениях дяди - неформала и его до зубного скрежета правильного племянника, о их приключениях: забавных, опасных, грустных...

Доп. информация: Данный сериал - бенефис стэнд - ап комика Ника Хелма.

Эфир в Великобритании: 13 января - 17 февраля 2014


Ник Хелм (1981) - популярный стэнд - ап комик. А рано или поздно все успешные стэндаперы получают собственные ситкомы. Хелм пошел проторенной дорожкой, которой до него уже пользовались:

Дэн Кларк - автор Как не стоить жить

Джек Уайтхолл - создатель Раздолбайской учебы

и комик - труппа Оболтусы

Профессиональные достижения Хелма:
номинация на премию "Король комедии" в категории "Лучшее стэнд - ап шоу 2012"

Сэмпл: http://yadi.sk/d/LhjZFKtdGaiyH

Качество: HDTVRip
Формат: AVI
Видео кодек: XviD
Аудио кодек: MP3
Видео: 1039 Kbps, 640x360 (16:9) 25 000 fps MPEG 4 Visual XviD 0.180 bit/pixel
Аудио: 128 Kbps 48.0 KHz 2 ch MPEG Audio MP 3
Субтитры: есть
General
Complete name : C:UsersВладелецDesktopwww.Torrenting.com - Uncle.S01E01.HDTV.XviD-AFGUncle.S01E01.HDTV.XviD-AFG.avi
Format : AVI
Format/Info : Audio Video Interleave
File size : 228 MiB
Duration : 27mn 0s
Overall bit rate mode : Variable
Overall bit rate : 1 180 Kbps

Video
ID : 0
Format : MPEG-4 Visual
Format profile : Advanced Simple@L5
Format settings, BVOP : 2
Format settings, QPel : No
Format settings, GMC : No warppoints
Format settings, Matrix : Default (H.263)
Codec ID : XVID
Codec ID/Hint : XviD
Duration : 27mn 0s
Bit rate : 1 039 Kbps
Width : 640 pixels
Height : 360 pixels
Display aspect ratio : 16:9
Frame rate : 25.000 fps
Color space : YUV
Chroma subsampling : 4:2:0
Bit depth : 8 bits
Scan type : Progressive
Compression mode : Lossy
Bits/(Pixel*Frame) : 0.180
Stream size : 201 MiB (88%)
Writing library : XviD 64

Audio
ID : 1
Format : MPEG Audio
Format version : Version 1
Format profile : Layer 3
Mode : Joint stereo
Mode extension : MS Stereo
Codec ID : 55
Codec ID/Hint : MP3
Duration : 27mn 0s
Bit rate mode : Variable
Bit rate : 128 Kbps
Channel(s) : 2 channels
Sampling rate : 48.0 KHz
Compression mode : Lossy
Stream size : 24.7 MiB (11%)
Alignment : Aligned on interleaves
Interleave, duration : 24 ms (0.60 video frame)
Interleave, preload duration : 178 ms
Title : Uncle.S01E01.HDTV.XviD-AFG_360p.audio









   Похожие торренты   Торрент   Размер 
В этой теме нет новых непрочитанных сообщений. Дядя / Uncle [S01] (2014) WEBRip 720p | Jimmy J.

146 | 87

3.07 ГБ

В этой теме нет новых непрочитанных сообщений. Дядя Сэм / Uncle Sam (1997) DVDRip

1 | 42

1.37 ГБ

В этой теме нет новых непрочитанных сообщений. Дядя Джон / Uncle John (2015) WEB-DLRip | L2

229 | 10

1.37 ГБ

В этой теме нет новых непрочитанных сообщений. Дядя Джон / Uncle John (2015) WEB-DLRip | L2

28 | 4

2.05 ГБ

В этой теме нет новых непрочитанных сообщений. Дядя Джон / Uncle John (2015) WEB-DL 720p | L2

42 | 2

3.68 ГБ

В этой теме нет новых непрочитанных сообщений. Дядя Джон / Uncle John (2015) WEB-DL 720p | L2

156 | 1

3.68 ГБ

В этой теме нет новых непрочитанных сообщений. Дядя Джон / Uncle John (2015) WEB-DLRip | L2

497 | 36

1.45 ГБ




Вы не можете начинать темы
Вы не можете отвечать на сообщения
Вы не можете редактировать свои сообщения
Вы не можете удалять свои сообщения
Вы не можете добавлять вложения

Перейти:  
Для Мосгорсуда, Роскомнадзора и рекламодателей: mosgorsud-torrent[собачка]yandex.ru
 Вход
ppkBB3cker v.2 © 2008-2014 @ PPK
[ Time : 0.112s | 14 Queries | GZIP : Off ]
CGP output time : 0.083s | 5 Queries | GZIP : Off

Торрент трекер RUTOR.IN, Не можете зайти на rutor.org? Какой новый адрес рутор? Какое зеркало рутор? Не работает rutor.org и зеркала? Тогда наш торрент специально для вас. Rutor.in неофициальное зеркало rutor. В случае если у Вас заблокирован rutor или вдруг Вы не можете на него зайти, то Вы без труда сможете скачать бесплатно и без рекламы последние новинки кино, игр, сериалов и прочего у нас, на Rutor.in. Не нужно использовать прокси, чтобы зайти на рутор, достаточно воспользоваться нашим ресурсом. Все новые фильмы, игры, сериалы, книги и музыка за 2013 и 2014 годы через торрент бесплатно. Скачивайте фильмы в хорошем качестве, игры для пк, xbox, playstation без регистрации. У нас вы найдете новые Зарубежные сериалы и Русские сериалы 2013, 2014, 2015 годов. Оставайтесь с нами, качайте любимые фильмы, игры, сериалы, книги и музыку.