img image001 image001 image001 image001 image001 image001 image001 image001 image001 image001 image001 image001 image001 image001 image001

Planets Sun Sun Sun
Статистика раздачи
Автор: Nickolas3434 | Размер: 15.57 ГБ | Добавлен: 05 мар 2014
Раздают: 82    Качают: 159
Скачать торрент
Скачать торрент
Описание торрента

СообщениеДобавлено: 05 мар 2014 

Информация о фильмеДело чести
Оригинальное название:
Год выхода: 2013
Жанр: Драма
Режиссер: Алексей Чистиков
В ролях: Алексей Чадов, Людмила Свитова, Андрей Чадов, Татьяна Яковенко, Агния Дитковските, Сергей Жигунов, Татьяна Васильева, Виктория Толстоганова, Иван Агапов, Юлия Мельникова

О фильме: Захватывающая история берет свое начало в 2000-х годах, когда семья Назаровых, надеясь на лучшую жизнь, перебирается из провинциального городка в Москву. Здесь отец братьев вкладывает все сбережения в собственный бизнес и открывает магазин с техникой на крупном рынке. Казалось бы, новая жизнь начинает налаживаться, но павильон грабят. В итоге главу семейства находят повесившимся, а его жена сходит с ума, не сумев пережить трагедию. Понимая, что ограбление — не случайность, братья решают отомстить за родителей, но выбирают противоположные методы. Иван, которого играет Алексей Чадов, решает внедриться в преступный мир, найти всех, кто виновен в гибели отца, и постепенно их уничтожить. Его брат Александр планирует стать юристом, чтобы бороться с преступностью и несправедливостью при помощи закона.
Страна: Россия
Студия: "ВайТ Медиа", "Всемирные Русские Студии"
Продолжительность: 20 x ~ 00:50:00
Язык: Русский
Файл
Кодек: MPEG-2
Качество: DVD-9
Видео: PAL 16:9 (720x576) VBR
Звук: Русский (Dolby AC3, 2 ch)


Title: Локальный диск
Size: 7.70 Gb ( 8 075 128 KBytes ) - DVD-9
Enabled regions: 1, 2, 3, 4, 5, 6, 7, 8

VTS_01 :
Play Length: 00:51:38+00:49:02+00:50:42+00:50:00+00:49:36+00:50:02+00:49:06+00:50:26+00:49:30+00:48:51
Video: PAL 16:9 (720x576) VBR, Auto Pan&Scan
Audio:
English (Dolby AC3, 2 ch)

Menu Video:
PAL 16:9 (720x576) VBR
Auto Pan&Scan
Menu Audio:
Not specified (Dolby AC3, 2 ch)
Menu Subtitles:
Not specified
Menu English Language Unit :
Root Menu


Общее
Полное имя : D:1АААДЕЛО ЧЕСТИДИСК 1VIDEO_TSVTS_01_1.VOB
Формат : MPEG-PS
Размер файла : 1000 Мбайт
Продолжительность : 10 м.
Режим общего битрейта : Переменный
Общий поток : 13,4 Мбит/сек

Видео
Идентификатор : 224 (0xE0)
Формат : MPEG Video
Версия формата : Version 2
Профиль формата : Main@Main
Параметр BVOP формата : Да
Параметр матрицы формата : По умолчанию
Параметр GOP формата : Variable
Продолжительность : 10 м.
Вид битрейта : Переменный
Битрейт : 13,1 Мбит/сек
Максимальный битрейт : 9200 Кбит/сек
Ширина : 720 пикселей
Высота : 576 пикселей
Соотношение сторон : 16:9
Частота кадров : 25,000 кадров/сек
Стандарт вещания : PAL
Цветовое пространство : YUV
Субдискретизация насыщенности : 4:2:0
Битовая глубина : 8 бит
Тип развёртки : Прогрессивная
Метод сжатия : С потерями
Бит/(Пиксели*Кадры) : 1.262
TimeCode_FirstFrame : 00:00:00:00
TimeCode_Source : Group of pictures header
Размер потока : 973 Мбайт (97%)

Аудио
Идентификатор : 189 (0xBD)-128 (0x80)
Формат : AC-3
Формат/Информация : Audio Coding 3
Расширение режима : CM (complete main)
Параметр Endianness формата : Big
Режим смешивания : DVD-Video
Продолжительность : 10 м.
Вид битрейта : Постоянный
Битрейт : 96,0 Кбит/сек
Каналы : 2 канала
Расположение каналов : Front: L R
Частота : 48,0 КГц
Битовая глубина : 16 бит
Метод сжатия : С потерями
Размер потока : 7,14 Мбайт (1%)

Меню





   Похожие торренты   Торрент   Размер 
В этой теме нет новых непрочитанных сообщений. Дело чести [01-20 из 20] (2013) DVDRip от MediaClub | КПК

241 | 98

4.39 ГБ

В этой теме нет новых непрочитанных сообщений. Дело чести [01-20 из 20] (2013) DVDRip-AVC от New-Team | лицензия

162 | 141

10.49 ГБ

В этой теме нет новых непрочитанных сообщений. Дело чести [01-02 из 20] (2013) DVDRip-AVC от ExKinoRay | Лицензия

11 | 42

2.6 ГБ

В этой теме нет новых непрочитанных сообщений. Дело чести [01-20 из 20] (2013) DVDRip-AVC от ExKinoRay | Лицензия

120 | 109

24.79 ГБ

В этой теме нет новых непрочитанных сообщений. Дело чести [01-20 из 20] (2013) 2xDVD9 R5 от New-Team | лицензия

230 | 373

15.57 ГБ

В этой теме нет новых непрочитанных сообщений. Дело чести [01-20 из 20] (2013) DVDRip от New-Team | лицензия

464 | 2621

10.13 ГБ

В этой теме нет новых непрочитанных сообщений. Дело чести [01-06 из 20] (2013) DVDRip-AVC от ExKinoRay | Лицензия

38 | 31

7.7 ГБ




Вы не можете начинать темы
Вы не можете отвечать на сообщения
Вы не можете редактировать свои сообщения
Вы не можете удалять свои сообщения
Вы не можете добавлять вложения

Перейти:  
Для Мосгорсуда, Роскомнадзора и рекламодателей: mosgorsud-torrent[собачка]yandex.ru
 Вход
ppkBB3cker v.2 © 2008-2014 @ PPK
[ Time : 0.553s | 18 Queries | GZIP : Off ]

Торрент трекер RUTOR.IN, Не можете зайти на rutor.org? Какой новый адрес рутор? Какое зеркало рутор? Не работает rutor.org и зеркала? Тогда наш торрент специально для вас. Rutor.in неофициальное зеркало rutor. В случае если у Вас заблокирован rutor или вдруг Вы не можете на него зайти, то Вы без труда сможете скачать бесплатно и без рекламы последние новинки кино, игр, сериалов и прочего у нас, на Rutor.in. Не нужно использовать прокси, чтобы зайти на рутор, достаточно воспользоваться нашим ресурсом. Все новые фильмы, игры, сериалы, книги и музыка за 2013 и 2014 годы через торрент бесплатно. Скачивайте фильмы в хорошем качестве, игры для пк, xbox, playstation без регистрации. У нас вы найдете новые Зарубежные сериалы и Русские сериалы 2013, 2014, 2015 годов. Оставайтесь с нами, качайте любимые фильмы, игры, сериалы, книги и музыку.