img image001 image001 image001 image001 image001 image001 image001 image001 image001 image001 image001 image001 image001 image001 image001

Planets Sun Sun Sun
Статистика раздачи
Автор: Nickolas3434 | Размер: 699.89 МБ | Добавлен: 06 мар 2014
Раздают: 138    Качают: 19
Скачать торрент
Скачать торрент
Описание торрента

СообщениеДобавлено: 06 мар 2014 

Информация о фильме
Оригинальное название: Дружба народов
Год выпуска: 2014
Жанр: Комедия
Выпущено: Россия
Режиссер: Шабан Муслимов
В ролях: Екатерина Скулкина, Теймураз Тания, Мария Романова, Анна Аршава, Марина Барсукова, Анна Парцева, Анастасия Акатова, Ирина Гавра

О фильме: О семейной жизни лезгина и казачки, Лены и Джабраила Муслимовых, владельцев небольшой стоматологической клиники в Москве. У них двое замечательных детей и множество родственников.

Файл
: WEB-DLRip | В релизе отсутствует любая Реклама
Видео: 720x400 (1.80:1), 25 fps, XviD build 73 ~2077 kbps avg, 0.29 bit/pixel
Аудио: 44.100 kHz, MPEG Layer 3, 2 ch, ~128.00 kbps avg
Продолжительность: ~ 00:26:00 / серия
Язык: Русский

Внимание! Раздача ведется путём добавления новых серий; при каждом добавлении создается новый торрент. Чтобы начать докачку новой серии, пользователям необходимо сделать следующее:
(1) остановить скачивание,
(2) удалить старый торрент у себя из клиента (старые серии удалять не надо),
(3) скачать новый торрент и запустить его у себя в клиенте вместо старого, при этом указать клиенту путь в старую папку куда и должно происходить скачивание новых серий.
Ваш клиент при этом должен произвести хеширование (проверку) старой папки (если не производит сам - помогите ему сделать это), и будет докачивать только те серии которых у вас ещё нет. Старые серии при этом не удаляются, а продолжают раздаваться!
Если вы уже удалили старые серии, то предотвратить повторную закачку старых серий можно, отжав галочку в соответствующих местах при запуске нового торрента. По возможности, желательно не удалять старые серии как можно дольше чтобы релизер не столько продолжал раздавать старые серии, а смог сконцентрироваться на новых.


Общее
Полное имя : D:Рипы выкладка [Deadmauvlad]Рипы готовыеDrujba.narodov.s01.WEBDLRip.DeadmauvladDrujba.narodov.s01.e01.WEBDLRip.Deadmauvlad.avi
Формат : AVI
Формат/Информация : Audio Video Interleave
Размер файла : 350 Мбайт
Продолжительность : 22 м.
Общий поток : 2215 Кбит/сек
Название фильма : Drujba.narodov.s01.e01.WEBDLRip.Deadmauvlad
Режиссёр : Deadmauvlad
Жанр : Comedy/Romance/Fantasy
Программа кодирования : VirtualDubMod 1.5.10.3 | www.virtualdub-fr.org || (build 2550/release)
Формат оригинала/Имя : TV Series
Правообладатель : Goldenshara

Видео
Идентификатор : 0
Формат : MPEG-4 Visual
Профиль формата : Advanced Simple@L5
Параметр BVOP формата : 1
Параметр QPel формата : Нет
Параметр GMC формата : Без точки перехода
Параметр матрицы формата : Выборочная
Идентификатор кодека : XVID
Идентификатор кодека/Подсказка : XviD
Продолжительность : 22 м.
Битрейт : 2078 Кбит/сек
Ширина : 720 пикселей
Высота : 400 пикселей
Соотношение сторон : 16:9
Частота кадров : 25,000 кадров/сек
Цветовое пространство : YUV
Субдискретизация насыщенности : 4:2:0
Битовая глубина : 8 бит
Тип развёртки : Прогрессивная
Метод сжатия : С потерями
Бит/(Пиксели*Кадры) : 0.289
Размер потока : 328 Мбайт (94%)
Библиотека кодирования : XviD 73

Аудио
Идентификатор : 1
Формат : MPEG Audio
Версия формата : Version 1
Профиль формата : Layer 3
Идентификатор кодека : 55
Идентификатор кодека/Подсказка : MP3
Продолжительность : 22 м.
Вид битрейта : Постоянный
Битрейт : 128 Кбит/сек
Каналы : 2 канала
Частота : 44,1 КГц
Метод сжатия : С потерями
Размер потока : 20,2 Мбайт (6%)
Выравнивание : Разделение по промежуткам
Продолжительность промежутка : 40 мс. (1,00 видеокадр)
Время предзагрузки промежутка : 500 мс.
Библиотека кодирования : LAME3.99r
Настройки программы : -m s -V 4 -q 2 -lowpass 17 -b 128





Релиз Goldenshara

Рип Deadmauvlad



   Похожие торренты   Торрент   Размер 
В этой теме нет новых непрочитанных сообщений. Дружба народов [01х01-06 из 20] (2014) WEB-DLRip от Goldenshara

956 | 875

2.05 ГБ

В этой теме нет новых непрочитанных сообщений. Дружба народов [01х01-10 из 23] (2014) WEB-DLRip от Goldenshara

304 | 202

3.42 ГБ

В этой теме нет новых непрочитанных сообщений. Дружба народов [01х03 из 20] (2014) WEB-DLRip от Goldenshara

224 | 143

1.03 ГБ

В этой теме нет новых непрочитанных сообщений. Дружба народов [01х04 из 20] (2014) WEB-DLRip от Goldenshara

713 | 478

1.37 ГБ

В этой теме нет новых непрочитанных сообщений. Дружба народов [01х01 из 20] (2014) WEB-DLRip

897 | 156

257.86 МБ

В этой теме нет новых непрочитанных сообщений. Дружба народов [S01] (2014) WEB-DLRip от Generalfilm | КПК

40 | 14

1.95 ГБ

В этой теме нет новых непрочитанных сообщений. Дружба народов [01х01-13 из 23] (2014) WEB-DLRip от Deadmauvlad

423 | 483

4.39 ГБ




Вы не можете начинать темы
Вы не можете отвечать на сообщения
Вы не можете редактировать свои сообщения
Вы не можете удалять свои сообщения
Вы не можете добавлять вложения

Перейти:  
Для Мосгорсуда, Роскомнадзора и рекламодателей: mosgorsud-torrent[собачка]yandex.ru
 Вход
ppkBB3cker v.2 © 2008-2014 @ PPK
[ Time : 0.061s | 16 Queries | GZIP : Off ]

Торрент трекер RUTOR.IN, Не можете зайти на rutor.org? Какой новый адрес рутор? Какое зеркало рутор? Не работает rutor.org и зеркала? Тогда наш торрент специально для вас. Rutor.in неофициальное зеркало rutor. В случае если у Вас заблокирован rutor или вдруг Вы не можете на него зайти, то Вы без труда сможете скачать бесплатно и без рекламы последние новинки кино, игр, сериалов и прочего у нас, на Rutor.in. Не нужно использовать прокси, чтобы зайти на рутор, достаточно воспользоваться нашим ресурсом. Все новые фильмы, игры, сериалы, книги и музыка за 2013 и 2014 годы через торрент бесплатно. Скачивайте фильмы в хорошем качестве, игры для пк, xbox, playstation без регистрации. У нас вы найдете новые Зарубежные сериалы и Русские сериалы 2013, 2014, 2015 годов. Оставайтесь с нами, качайте любимые фильмы, игры, сериалы, книги и музыку.