img image001 image001 image001 image001 image001 image001 image001 image001 image001 image001 image001 image001 image001 image001 image001

Planets Sun Sun Sun
Статистика раздачи
Автор: Nickolas3434 | Размер: 10.49 ГБ | Добавлен: 06 мар 2014
Раздают: 162    Качают: 141
Скачать торрент
Скачать торрент
Описание торрента

СообщениеДобавлено: 06 мар 2014 

Дело чести




Страна: Россия
Студия: Всемирные Русские Студии, ВайТ Медиа
Жанр: драма
Год выпуска: 2013
Продолжительность: ~00:50:00

Перевод: Не требуется (русский)
Cубтитры: Нет

Сезон: 1
Количество серий: 1 - 20 из 20

Режиссер:
Алексей Чистиков

В ролях:
Алексей Чадов, Людмила Свитова, Андрей Чадов, Татьяна Яковенко, Агния Дитковските, Сергей Жигунов, Татьяна Васильева, Виктория Толстоганова, Иван Агапов, Юлия Мельникова

Описание:
Захватывающая история берет свое начало в 2000-х годах, когда семья Назаровых, надеясь на лучшую жизнь, перебирается из провинциального городка в Москву. Здесь отец братьев вкладывает все сбережения в собственный бизнес и открывает магазин с техникой на крупном рынке. Казалось бы, новая жизнь начинает налаживаться, но павильон грабят. В итоге главу семейства находят повесившимся, а его жена сходит с ума, не сумев пережить трагедию.

Понимая, что ограбление — не случайность, братья решают отомстить за родителей, но выбирают противоположные методы. Иван, которого играет Алексей Чадов, решает внедриться в преступный мир, найти всех, кто виновен в гибели отца, и постепенно их уничтожить. Его брат Александр планирует стать юристом, чтобы бороться с преступностью и несправедливостью при помощи закона.

Не только способы достижения цели разводят братьев по разные стороны баррикад: Иван и Александр становятся соперниками, влюбляясь в одних и тех же женщин, а также переживают предательства друзей и союзников. Однако в самые тяжелые и решающие моменты они могут надеяться только друг на друга.


Релиз: |

Автор рипа: Stalker oK

Сэмпл: multi-up
Качество видео: DVDRip-AVC [исходник 2 x DVD9]
Формат видео: MKV
Видео кодек: AVC
Аудио кодек: AC3
Видео: 1400 Кбит/сек, 510(742)*402 (16:9), в 25,000 кадр/сек, AVC
Аудио: Russian, 96,0 Кбит/сек, 48,0 КГц, 16 бит, 2 канала(ов), AC-3
Общее
Уникальный идентификатор : 201406435696920116357342742998792997562 (0x978577F2E63C5C77AE46D72A6B430ABA)
Полное имя : D:Дело чести (рипы)Delo chestiDelo_chesti_2013_S01E01_DVDRip_AVC__stalkerok_new-team.mkv
Формат : Matroska
Размер файла : 553 Мбайт
Продолжительность : 51 м.
Общий поток : 1497 Кбит/сек
Название фильма : Дело чести (2013) (New-Team) (Rip by Stalker oK)
Дата кодирования : UTC 2014-03-05 13:18:23
Программа кодирования : mkvmerge v6.2.0 ('Promised Land') built on Apr 28 2013 12:22:01
Библиотека кодирования : libebml v1.3.0 + libmatroska v1.4.0

Видео
Идентификатор : 1
Формат : AVC
Формат/Информация : Advanced Video Codec
Профиль формата : High@L4.1
Параметр CABAC формата : Да
Параметр ReFrames формата : 10 кадры
Параметры GOP формата : M=1, N=5
Идентификатор кодека : V_MPEG4/ISO/AVC
Продолжительность : 51 м.
Битрейт : 1400 Кбит/сек
Ширина : 510 пикс.
Высота : 402 пикс.
Соотношение сторон : 16:9
Соотношение сторон в оригинале : 16:9
Частота кадров : 25,000 кадр/сек
Цветовое пространство : YUV
Подвыборка цветности : 4:2:0
Битовая глубина : 8 бит
Тип развёртки : Прогрессивная
Бит/(Пиксели*Кадры) : 0.273
Размер потока : 507 Мбайт (92%)
Библиотека кодирования : x264 core 138 r2358 9e941d1
Настройки программы : cabac=1 / ref=10 / deblock=1:-2:-1 / analyse=0x3:0x133 / me=umh / subme=10 / psy=1 / psy_rd=1.00:0.10 / mixed_ref=1 / me_range=32 / chroma_me=1 / trellis=2 / 8x8dct=1 / cqm=0 / deadzone=21,11 / fast_pskip=0 / chroma_qp_offset=-3 / threads=6 / lookahead_threads=1 / sliced_threads=0 / nr=0 / decimate=0 / interlaced=0 / bluray_compat=0 / constrained_intra=0 / bframes=10 / b_pyramid=2 / b_adapt=2 / b_bias=0 / direct=3 / weightb=1 / open_gop=0 / weightp=2 / keyint=250 / keyint_min=25 / scenecut=40 / intra_refresh=0 / rc_lookahead=80 / rc=2pass / mbtree=1 / bitrate=1400 / ratetol=2.0 / qcomp=0.70 / qpmin=0 / qpmax=69 / qpstep=4 / cplxblur=20.0 / qblur=0.5 / vbv_maxrate=20000 / vbv_bufsize=25000 / nal_hrd=none / ip_ratio=1.40 / aq=1:1.20

Аудио
Идентификатор : 2
Формат : AC-3
Формат/Информация : Audio Coding 3
Расширение режима : CM (complete main)
Идентификатор кодека : A_AC3
Продолжительность : 51 м.
Вид битрейта : Постоянный
Битрейт : 96,0 Кбит/сек
Канал(ы) : 2 канала(ов)
Расположение каналов : Front: L R
Частота : 48,0 КГц
Битовая глубина : 16 бит
Метод сжатия : С потерями
Размер потока : 35,5 Мбайт (6%)
Заголовок : AC3 2.0 @ 96 kbps








   Похожие торренты   Торрент   Размер 
В этой теме нет новых непрочитанных сообщений. Дело чести [01-20 из 20] (2013) DVDRip от New-Team | лицензия

464 | 2621

10.13 ГБ

В этой теме нет новых непрочитанных сообщений. Дело чести [01-20 из 20] (2013) 2xDVD9 R5 от New-Team | лицензия

230 | 373

15.57 ГБ

В этой теме нет новых непрочитанных сообщений. Дело чести [01-20 из 20] (2013) DVDRip-AVC от ExKinoRay | Лицензия

120 | 109

24.79 ГБ

В этой теме нет новых непрочитанных сообщений. Дело чести [01-02 из 20] (2013) DVDRip-AVC от ExKinoRay | Лицензия

11 | 42

2.6 ГБ

В этой теме нет новых непрочитанных сообщений. Дело чести [01-06 из 20] (2013) DVDRip-AVC от ExKinoRay | Лицензия

38 | 31

7.7 ГБ

В этой теме нет новых непрочитанных сообщений. Дело чести (2011) DVDRip от КинозалSAT | Лицензия

135 | 32

1.37 ГБ

В этой теме нет новых непрочитанных сообщений. Дело чести [01-20 из 20] (2013) DVDRip от MediaClub | КПК

241 | 98

4.39 ГБ




Вы не можете начинать темы
Вы не можете отвечать на сообщения
Вы не можете редактировать свои сообщения
Вы не можете удалять свои сообщения
Вы не можете добавлять вложения

Перейти:  
Для Мосгорсуда, Роскомнадзора и рекламодателей: mosgorsud-torrent[собачка]yandex.ru
 Вход
ppkBB3cker v.2 © 2008-2014 @ PPK
[ Time : 0.040s | 15 Queries | GZIP : Off ]

Торрент трекер RUTOR.IN, Не можете зайти на rutor.org? Какой новый адрес рутор? Какое зеркало рутор? Не работает rutor.org и зеркала? Тогда наш торрент специально для вас. Rutor.in неофициальное зеркало rutor. В случае если у Вас заблокирован rutor или вдруг Вы не можете на него зайти, то Вы без труда сможете скачать бесплатно и без рекламы последние новинки кино, игр, сериалов и прочего у нас, на Rutor.in. Не нужно использовать прокси, чтобы зайти на рутор, достаточно воспользоваться нашим ресурсом. Все новые фильмы, игры, сериалы, книги и музыка за 2013 и 2014 годы через торрент бесплатно. Скачивайте фильмы в хорошем качестве, игры для пк, xbox, playstation без регистрации. У нас вы найдете новые Зарубежные сериалы и Русские сериалы 2013, 2014, 2015 годов. Оставайтесь с нами, качайте любимые фильмы, игры, сериалы, книги и музыку.