img image001 image001 image001 image001 image001 image001 image001 image001 image001 image001 image001 image001 image001 image001 image001

Planets Sun Sun Sun
Статистика раздачи
Автор: Nickolas3434 | Размер: 1.96 ГБ | Добавлен: 07 мар 2014
Раздают: 427    Качают: 190
Скачать торрент
Скачать торрент
Описание торрента

СообщениеДобавлено: 07 мар 2014 

Страна: Россия
Производство: Кинокомпания "Талан"
Жанр: Боевик
Год выпуска: 2013

Продолжительность: 4 х ~ 00:44:00
Язык: Русский

Режиссер: Олег Фомин
В ролях: Семён Шкаликов, Алексей Фаддеев, Гурам Баблишвили, Виктория Полторак, Константин Демидов (II), Александр Бобров (IV), Владимир Яворский, Леонид Тимцуник, Вадим Астафьев, Михаил Водзуми, Павел Абдалов, Олег Фомин, Кирилл Козаков, Алик Гульханов, Ведат Меметов, Фатих Шафиков, Олег Доброван, Дмитрий Горевой, Юрий Маслак
Описание: Россия, 1916 год. Идет Первая мировая война. Капитан русской контрразведки Василий Щепкин со своей группой занимается выявлением вражеской агентуры в столице Российской империи. В состав группы входят, кроме него, еще трое: ротмистр Гоглидзе, прапорщик Белкин и вольнонаемный сотрудник Диана Холодова.



Исходник: DVD9 R5

Тип релиза: DVDRip

Контейнер: AVI
Видео: XviD, 1484 Кбит/с, 720х400
Аудио: АС3, 2 ch, 96 Кбит/с
Общее
Полное имя : D:1АААКурьерский особой важности1 серия.avi
Формат : AVI
Формат/Информация : Audio Video Interleave
Размер файла : 501 Мбайт
Продолжительность : 44 м.
Общий поток : 1586 Кбит/сек
Программа кодирования : VirtualDubMod 1.5.10.3 | www.virtualdub-fr.org || (build 2550/release)
Библиотека кодирования : VirtualDubMod build 2550/release

Видео
Идентификатор : 0
Формат : MPEG-4 Visual
Профиль формата : Advanced Simple@L5
Параметр BVOP формата : 2
Параметр QPel формата : Нет
Параметр GMC формата : Без точки перехода
Параметр матрицы формата : Default (MPEG)
Режим смешивания : Сжатый битовый поток
Идентификатор кодека : XVID
Идентификатор кодека/Подсказка : XviD
Продолжительность : 44 м.
Битрейт : 1481 Кбит/сек
Ширина : 720 пикселей
Высота : 400 пикселей
Соотношение сторон : 16:9
Частота кадров : 23,976 кадра/сек
Цветовое пространство : YUV
Субдискретизация насыщенности : 4:2:0
Битовая глубина : 8 бит
Тип развёртки : Прогрессивная
Метод сжатия : С потерями
Бит/(Пиксели*Кадры) : 0.214
Размер потока : 468 Мбайт (93%)
Библиотека кодирования : XviD 1.2.1 (UTC 2008-12-04)

Аудио
Идентификатор : 1
Формат : AC-3
Формат/Информация : Audio Coding 3
Расширение режима : CM (complete main)
Параметр Endianness формата : Big
Идентификатор кодека : 2000
Продолжительность : 44 м.
Вид битрейта : Постоянный
Битрейт : 96,0 Кбит/сек
Каналы : 2 канала
Расположение каналов : Front: L R
Частота : 48,0 КГц
Битовая глубина : 16 бит
Метод сжатия : С потерями
Размер потока : 30,3 Мбайт (6%)
Выравнивание : Разделение по промежуткам
Продолжительность промежутка : 42 мс. (1,00 видеокадр)
Время предзагрузки промежутка : 500 мс.





Релиз группа:

Автор рипа:



   Похожие торренты   Торрент   Размер 
В этой теме нет новых непрочитанных сообщений. Курьерский особой важности [01-04 из 04] (2013) SATRip от MediaClub

44 | 3

2.31 ГБ

В этой теме нет новых непрочитанных сообщений. Курьерский особой важности [01-04 из 04] (2013) HDTVRip 720p

18 | 11

7.39 ГБ

В этой теме нет новых непрочитанных сообщений. Курьерский особой важности [01-04 из 04] (2013) DVD9 от New-Team | Лицензия

35 | 15

6.42 ГБ

В этой теме нет новых непрочитанных сообщений. Задания особой важности. Операция «Тайфун» [01-04 из 04] (2013) DVB

106 | 11

3.18 ГБ

В этой теме нет новых непрочитанных сообщений. Задания особой важности. Операция «Тайфун» [01-04 из 04] (2013) SATRip

120 | 8

1.95 ГБ

В этой теме нет новых непрочитанных сообщений. Группа «З.О.В.»: Задания особой важности. Операция "Тайфун" [01-04 из 4] (2013) DVDRip от Generalfilm | КПК

46 | 3

862.37 МБ

В этой теме нет новых непрочитанных сообщений. Группа «З.О.В.»: Задания особой важности. Операция "Тайфун" [01-04 из 4] (2013) DVDRip-AVC от Youtracker | лицензия

18 | 9

2.9 ГБ




Вы не можете начинать темы
Вы не можете отвечать на сообщения
Вы не можете редактировать свои сообщения
Вы не можете удалять свои сообщения
Вы не можете добавлять вложения

Перейти:  
Для Мосгорсуда, Роскомнадзора и рекламодателей: mosgorsud-torrent[собачка]yandex.ru
 Вход
ppkBB3cker v.2 © 2008-2014 @ PPK
[ Time : 0.048s | 17 Queries | GZIP : Off ]

Торрент трекер RUTOR.IN, Не можете зайти на rutor.org? Какой новый адрес рутор? Какое зеркало рутор? Не работает rutor.org и зеркала? Тогда наш торрент специально для вас. Rutor.in неофициальное зеркало rutor. В случае если у Вас заблокирован rutor или вдруг Вы не можете на него зайти, то Вы без труда сможете скачать бесплатно и без рекламы последние новинки кино, игр, сериалов и прочего у нас, на Rutor.in. Не нужно использовать прокси, чтобы зайти на рутор, достаточно воспользоваться нашим ресурсом. Все новые фильмы, игры, сериалы, книги и музыка за 2013 и 2014 годы через торрент бесплатно. Скачивайте фильмы в хорошем качестве, игры для пк, xbox, playstation без регистрации. У нас вы найдете новые Зарубежные сериалы и Русские сериалы 2013, 2014, 2015 годов. Оставайтесь с нами, качайте любимые фильмы, игры, сериалы, книги и музыку.