img image001 image001 image001 image001 image001 image001 image001 image001 image001 image001 image001 image001 image001 image001 image001

Planets Sun Sun Sun
Статистика раздачи
Автор: Nickolas3434 | Размер: 7.7 ГБ | Добавлен: 07 мар 2014
Раздают: 38    Качают: 31
Скачать торрент
Скачать торрент
Описание торрента

СообщениеДобавлено: 07 мар 2014 

Информация о фильме

Оригинальное название: Дело чести
Год выпуска: 2013
Жанр: Драма
Выпущено: Россия, "ВайТ Медиа", "Всемирные Русские Студии"
Режиссер: Алексей Чистиков
В ролях: Алексей Чадов, Людмила Свитова, Андрей Чадов, Татьяна Яковенко, Агния Дитковските, Сергей Жигунов, Татьяна Васильева, Виктория Толстоганова, Иван Агапов, Юлия Мельникова
О фильме: Захватывающая история берет свое начало в 2000-х годах, когда семья Назаровых, надеясь на лучшую жизнь, перебирается из провинциального городка в Москву. Здесь отец братьев вкладывает все сбережения в собственный бизнес и открывает магазин с техникой на крупном рынке. Казалось бы, новая жизнь начинает налаживаться, но павильон грабят. В итоге главу семейства находят повесившимся, а его жена сходит с ума, не сумев пережить трагедию. Понимая, что ограбление — не случайность, братья решают отомстить за родителей, но выбирают противоположные методы. Иван, которого играет Алексей Чадов, решает внедриться в преступный мир, найти всех, кто виновен в гибели отца, и постепенно их уничтожить. Его брат Александр планирует стать юристом, чтобы бороться с преступностью и несправедливостью при помощи закона.

Файл

Качество: DVDRip (AVC)
Видео: MPEG-4 AVC, ~ 3400 Kбит/с, 976х544, 25 кадр/с
Аудио: AC3, 2 ch, 192 Кбит/с
Размер: 7.7 ГБ
Продолжительность: 6 x ~ 00:51:00
Язык: Русский
За исходник, большое спасибо 089233

-------------------------------------------------------

Внимание, раздача ведется путем добавления новых серий!
1. Serija
x264 [info]: frame I:571 Avg QP:15.51 size: 79299
x264 [info]: frame P:22567 Avg QP:18.92 size: 36723
x264 [info]: frame B:54335 Avg QP:23.79 size: 8861
x264 [info]: consecutive B-frames: 1.9% 13.1% 4.0% 78.5% 1.5% 0.6% 0.2% 0.1% 0.0% 0.0%
x264 [info]: mb I I16..4: 5.9% 64.7% 29.3%
x264 [info]: mb P I16..4: 2.7% 21.4% 4.4% P16..4: 24.3% 25.9% 9.0% 4.1% 0.4% skip: 7.7%
x264 [info]: mb B I16..4: 0.4% 2.3% 0.3% B16..8: 32.8% 17.3% 2.6% direct: 6.8% skip:37.4% L0:31.6% L1:35.6% BI:32.8%
x264 [info]: 8x8 transform intra:74.3% inter:60.9%
x264 [info]: direct mvs spatial:95.8% temporal:4.2%
x264 [info]: coded y,uvDC,uvAC intra: 78.5% 73.8% 47.1% inter: 25.8% 21.2% 10.5%
x264 [info]: i16 v,h,dc,p: 40% 32% 4% 23%
x264 [info]: i8 v,h,dc,ddl,ddr,vr,hd,vl,hu: 21% 17% 9% 6% 7% 9% 8% 10% 12%
x264 [info]: i4 v,h,dc,ddl,ddr,vr,hd,vl,hu: 27% 23% 9% 4% 7% 8% 7% 7% 8%
x264 [info]: i8c dc,h,v,p: 15% 44% 26% 15%
x264 [info]: Weighted P-Frames: Y:1.3% UV:0.7%
x264 [info]: ref P L0: 60.5% 13.2% 14.1% 3.2% 2.8% 2.0% 2.0% 1.0% 1.2% 0.0% 0.0%
x264 [info]: ref B L0: 92.9% 5.0% 1.1% 0.4% 0.3% 0.2% 0.1% 0.1%
x264 [info]: ref B L1: 98.0% 2.0%
x264 [info]: kb/s:3499.16
------------------------------------------------------------
2.Serija
x264 [info]: frame I:540 Avg QP:13.94 size: 81128
x264 [info]: frame P:21363 Avg QP:17.48 size: 37842
x264 [info]: frame B:51657 Avg QP:22.53 size: 8416
x264 [info]: consecutive B-frames: 1.9% 12.8% 3.8% 78.9% 1.4% 0.8% 0.2% 0.1% 0.1% 0.0%
x264 [info]: mb I I16..4: 8.0% 60.4% 31.6%
x264 [info]: mb P I16..4: 2.6% 20.0% 4.9% P16..4: 23.3% 24.8% 9.7% 4.8% 0.6% skip: 9.3%
x264 [info]: mb B I16..4: 0.4% 2.2% 0.4% B16..8: 31.4% 16.7% 2.6% direct: 6.9% skip:39.3% L0:31.7% L1:36.4% BI:31.9%
x264 [info]: 8x8 transform intra:71.8% inter:57.9%
x264 [info]: direct mvs spatial:97.1% temporal:2.9%
x264 [info]: coded y,uvDC,uvAC intra: 77.9% 73.1% 50.3% inter: 25.1% 20.6% 11.0%
x264 [info]: i16 v,h,dc,p: 46% 31% 4% 18%
x264 [info]: i8 v,h,dc,ddl,ddr,vr,hd,vl,hu: 23% 18% 10% 5% 7% 9% 8% 10% 11%
x264 [info]: i4 v,h,dc,ddl,ddr,vr,hd,vl,hu: 29% 23% 10% 4% 7% 8% 7% 6% 7%
x264 [info]: i8c dc,h,v,p: 16% 45% 26% 13%
x264 [info]: Weighted P-Frames: Y:1.9% UV:1.0%
x264 [info]: ref P L0: 60.6% 13.2% 13.9% 3.2% 2.8% 2.0% 2.0% 1.0% 1.2% 0.0% 0.0%
x264 [info]: ref B L0: 92.9% 5.1% 1.1% 0.4% 0.3% 0.2% 0.1% 0.0%
x264 [info]: ref B L1: 97.9% 2.1%
x264 [info]: kb/s:3499.10


Общее
Уникальный идентификатор : 252765946495565423017913046692893613361 (0xBE28F355C8DBA025B0BD197D9648DD31)
Полное имя : D:ЗагрузкиDelo.Chesti.2013.DVDRip.(AVC).ExKinoRayDelo.Chesti.01.serija.2013.x264.DVDRip.(AVC).ExKinoRay.mkv
Формат : Matroska
Версия формата : Version 2
Размер файла : 1,33 Гбайт
Продолжительность : 51 м.
Общий поток : 3693 Кбит/сек
Название фильма : Дело чести.(1-я серия).2013.Rip by: ollan
Дата кодирования : UTC 2014-03-05 18:00:40
Программа кодирования : mkvmerge v5.6.0 ('Kenya Kane') built on May 27 2012 16:44:04
Библиотека кодирования : libebml v1.2.3 + libmatroska v1.3.0

Видео
Идентификатор : 1
Формат : AVC
Формат/Информация : Advanced Video Codec
Профиль формата : High@L4.1
Параметр CABAC формата : Да
Параметр ReFrames формата : 9 кадров
Идентификатор кодека : V_MPEG4/ISO/AVC
Продолжительность : 51 м.
Битрейт : 3500 Кбит/сек
Ширина : 976 пикселей
Высота : 544 пикселя
Соотношение сторон : 16:9
Режим частоты кадров : Постоянный
Частота кадров : 25,000 кадров/сек
Цветовое пространство : YUV
Субдискретизация насыщенности : 4:2:0
Битовая глубина : 8 бит
Тип развёртки : Прогрессивная
Бит/(Пиксели*Кадры) : 0.264
Размер потока : 1,24 Гбайт (93%)
Библиотека кодирования : x264 core 125 r2200 999b753
Настройки программы : cabac=1 / ref=9 / deblock=1:-2:-2 / analyse=0x3:0x133 / me=umh / subme=11 / psy=1 / psy_rd=1.00:0.10 / mixed_ref=1 / me_range=32 / chroma_me=1 / trellis=2 / 8x8dct=1 / cqm=0 / deadzone=21,11 / fast_pskip=0 / chroma_qp_offset=-3 / threads=12 / lookahead_threads=2 / sliced_threads=0 / nr=0 / decimate=0 / interlaced=0 / bluray_compat=0 / constrained_intra=0 / bframes=9 / b_pyramid=2 / b_adapt=2 / b_bias=0 / direct=3 / weightb=1 / open_gop=0 / weightp=2 / keyint=250 / keyint_min=25 / scenecut=40 / intra_refresh=0 / rc_lookahead=40 / rc=2pass / mbtree=1 / bitrate=3500 / ratetol=1.0 / qcomp=0.60 / qpmin=0 / qpmax=69 / qpstep=4 / cplxblur=20.0 / qblur=0.5 / ip_ratio=1.40 / aq=1:1.00
Язык : Russian
Default : Да
Forced : Нет

Аудио
Идентификатор : 2
Формат : AC-3
Формат/Информация : Audio Coding 3
Расширение режима : CM (complete main)
Параметр Endianness формата : Big
Идентификатор кодека : A_AC3
Продолжительность : 51 м.
Вид битрейта : Постоянный
Битрейт : 192 Кбит/сек
Каналы : 2 канала
Расположение каналов : Front: L R
Частота : 48,0 КГц
Битовая глубина : 16 бит
Метод сжатия : С потерями
Размер потока : 70,9 Мбайт (5%)
Язык : Russian
Default : Да
Forced : Нет







Релиз от: Rip by:



   Похожие торренты   Торрент   Размер 
В этой теме нет новых непрочитанных сообщений. Дело чести [01-02 из 20] (2013) DVDRip-AVC от ExKinoRay | Лицензия

11 | 42

2.6 ГБ

В этой теме нет новых непрочитанных сообщений. Дело чести [01-20 из 20] (2013) DVDRip-AVC от ExKinoRay | Лицензия

120 | 109

24.79 ГБ

В этой теме нет новых непрочитанных сообщений. Дело чести [01-20 из 20] (2013) DVDRip от New-Team | лицензия

464 | 2621

10.13 ГБ

В этой теме нет новых непрочитанных сообщений. Дело чести [01-20 из 20] (2013) DVDRip-AVC от New-Team | лицензия

162 | 141

10.49 ГБ

В этой теме нет новых непрочитанных сообщений. Дело чести [01-20 из 20] (2013) 2xDVD9 R5 от New-Team | лицензия

229 | 371

15.57 ГБ

В этой теме нет новых непрочитанных сообщений. Дело чести (2011) DVDRip от КинозалSAT | Лицензия

135 | 32

1.37 ГБ

В этой теме нет новых непрочитанных сообщений. Дело чести [01-20 из 20] (2013) DVDRip от MediaClub | КПК

241 | 98

4.39 ГБ




Вы не можете начинать темы
Вы не можете отвечать на сообщения
Вы не можете редактировать свои сообщения
Вы не можете удалять свои сообщения
Вы не можете добавлять вложения

Перейти:  
Для Мосгорсуда, Роскомнадзора и рекламодателей: mosgorsud-torrent[собачка]yandex.ru
 Вход
ppkBB3cker v.2 © 2008-2014 @ PPK
[ Time : 0.043s | 15 Queries | GZIP : Off ]

Торрент трекер RUTOR.IN, Не можете зайти на rutor.org? Какой новый адрес рутор? Какое зеркало рутор? Не работает rutor.org и зеркала? Тогда наш торрент специально для вас. Rutor.in неофициальное зеркало rutor. В случае если у Вас заблокирован rutor или вдруг Вы не можете на него зайти, то Вы без труда сможете скачать бесплатно и без рекламы последние новинки кино, игр, сериалов и прочего у нас, на Rutor.in. Не нужно использовать прокси, чтобы зайти на рутор, достаточно воспользоваться нашим ресурсом. Все новые фильмы, игры, сериалы, книги и музыка за 2013 и 2014 годы через торрент бесплатно. Скачивайте фильмы в хорошем качестве, игры для пк, xbox, playstation без регистрации. У нас вы найдете новые Зарубежные сериалы и Русские сериалы 2013, 2014, 2015 годов. Оставайтесь с нами, качайте любимые фильмы, игры, сериалы, книги и музыку.