img image001 image001 image001 image001 image001 image001 image001 image001 image001 image001 image001 image001 image001 image001 image001

Planets Sun Sun Sun
Статистика раздачи
Автор: Nickolas3434 | Размер: 19.52 ГБ | Добавлен: 07 мар 2014
Раздают: 89    Качают: 19
Скачать торрент
Скачать торрент
Описание торрента

СообщениеДобавлено: 07 мар 2014 

Информация о фильме
Название: Мост
Оригинальное название: Bron / Broen / The Bridge
Год выхода: 2013
Жанр: Криминальный триллер, полицейский детектив, мистическая драма
Режиссер: Хенрик Георгсон, Шарлотта Зилинг, Лиза Сиве
В ролях: София Хелин, Ким Бодния, Даг Малмберг, Эмиль Бирк Хартманн, Рафаэль Петтерссон, Кристина Бранден, Сара Боберг, Магнус Креппер, Кристиан Лима де Фариа, Магнус Шмитц, Эллен Хиллингсо, Ларс Симонсен, Йорген Торссон, Оле Бойсен

О фильме: На самой середине моста Орезунд, связывающего Швецию с Данией, происходит краткое отключение электроэнергии. Появление света знаменует собой появление незнакомого объекта: тело женщины, обращенное головой к Швеции, ногами к Дании. Чья полиция должна руководить расследованием убийства подброшенной за несколько минут мертвой женщины?



Выпущено: Дания, Швеция
Студия: Danmarks Radio (DR), Film i Skane, Film i Vast, Filmlance International AB, Nimbus Film ApS, Nordisk Film- & TV-Fond, Norsk Rikskringkasting (NRK), Programme MEDIA de la Communaute Europeenne, Sveriges Television (SVT), ZDF Enterprises, Zweites Deutsches Fernsehen (ZDF)
Продолжительность: 10 x ~ 00:58:00
Перевод: Профессиональный многоголосый

Файл
Кодек: MPEG-4 AVC
Качество: BDRip 720p
Видео: 4000 Кбит/с, 1280x720, 23.976 кадр/с
Звук:
Аудио #1: Русский (AC3, 6 ch, 384 Кбит/с) / Профессиональный многоголосый (Даб Лаб по заказу Amedia)
Аудио #2: Датский (AC3, 2 ch, 192 Кбит/с)
Субтитры: Английские





Общее
Уникальный идентификатор : 222040539524725654288431695621450976937 (0xA70B73D0157351B39D7119C509ED4EA9)
Полное имя : D:В планахСериалы MediaClubMost.(2.sezon.01-10.serii.iz.10).2013.x264.BDRip.720p_MediaClubMost.(2.sezon.01.seria.iz.10).2013.x264.BDRip.(720p)_MediaClub.mkv
Формат : Matroska
Версия формата : Version 4 / Version 2
Размер файла : 1,95 Гбайт
Продолжительность : 57 м.
Общий поток : 4861 Кбит/сек
Название фильма : ReJIiZ MediaClub by BenderBEST
Дата кодирования : UTC 2014-02-24 17:17:01
Программа кодирования : mkvmerge v6.5.0 ('Isn't she lovely') built on Oct 20 2013 12:50:05
Библиотека кодирования : libebml v1.3.0 + libmatroska v1.4.1

Видео
Идентификатор : 1
Формат : AVC
Формат/Информация : Advanced Video Codec
Профиль формата : High@L4.1
Параметр CABAC формата : Да
Параметр ReFrames формата : 5 кадров
Идентификатор кодека : V_MPEG4/ISO/AVC
Продолжительность : 57 м.
Битрейт : 4282 Кбит/сек
Ширина : 1280 пикселей
Высота : 720 пикселей
Соотношение сторон : 16:9
Режим частоты кадров : Постоянный
Частота кадров : 25,000 кадров/сек
Цветовое пространство : YUV
Субдискретизация насыщенности : 4:2:0
Битовая глубина : 8 бит
Тип развёртки : Прогрессивная
Бит/(Пиксели*Кадры) : 0.186
Размер потока : 1,68 Гбайт (86%)
Библиотека кодирования : x264 core 142 r2389 956c8d8
Настройки программы : cabac=1 / ref=5 / deblock=1:-2:-2 / analyse=0x3:0x113 / me=umh / subme=8 / psy=1 / psy_rd=1.00:0.00 / mixed_ref=1 / me_range=16 / chroma_me=1 / trellis=1 / 8x8dct=1 / cqm=0 / deadzone=21,11 / fast_pskip=1 / chroma_qp_offset=-2 / threads=12 / lookahead_threads=2 / sliced_threads=0 / nr=0 / decimate=1 / interlaced=0 / bluray_compat=0 / constrained_intra=0 / bframes=3 / b_pyramid=2 / b_adapt=2 / b_bias=0 / direct=3 / weightb=1 / open_gop=0 / weightp=2 / keyint=250 / keyint_min=25 / scenecut=40 / intra_refresh=0 / rc_lookahead=50 / rc=2pass / mbtree=1 / bitrate=4282 / ratetol=1.0 / qcomp=0.60 / qpmin=0 / qpmax=69 / qpstep=4 / cplxblur=20.0 / qblur=0.5 / ip_ratio=1.40 / aq=1:1.00
Язык : English
Default : Да
Forced : Нет

Аудио #1
Идентификатор : 2
Формат : AC-3
Формат/Информация : Audio Coding 3
Расширение режима : CM (complete main)
Параметр Endianness формата : Big
Идентификатор кодека : A_AC3
Продолжительность : 57 м.
Вид битрейта : Постоянный
Битрейт : 384 Кбит/сек
Каналы : 6 каналов
Расположение каналов : Front: L C R, Side: L R, LFE
Частота : 48,0 КГц
Битовая глубина : 16 бит
Метод сжатия : С потерями
Размер потока : 158 Мбайт (8%)
Заголовок : Даб Лаб по заказу Amedia
Язык : Russian
Default : Да
Forced : Нет

Аудио #2
Идентификатор : 3
Формат : AC-3
Формат/Информация : Audio Coding 3
Расширение режима : CM (complete main)
Параметр Endianness формата : Big
Идентификатор кодека : A_AC3
Продолжительность : 57 м.
Вид битрейта : Постоянный
Битрейт : 192 Кбит/сек
Каналы : 2 канала
Расположение каналов : Front: L R
Частота : 48,0 КГц
Битовая глубина : 16 бит
Метод сжатия : С потерями
Размер потока : 79,0 Мбайт (4%)
Язык : Dutch
Default : Нет
Forced : Нет

Текст #1
Идентификатор : 4
Формат : UTF-8
Идентификатор кодека : S_TEXT/UTF8
Идентификатор кодека/Информация : UTF-8 Plain Text
Язык : Russian
Default : Да
Forced : Нет

Текст #2
Идентификатор : 5
Формат : UTF-8
Идентификатор кодека : S_TEXT/UTF8
Идентификатор кодека/Информация : UTF-8 Plain Text
Язык : English
Default : Нет
Forced : Да

Меню
00:00:00.000 : en:00:00:00.000
00:09:52.680 : en:00:09:52.680
00:21:28.600 : en:00:21:28.600
00:36:06.400 : en:00:36:06.400
00:47:58.160 : en:00:47:58.160


Релиз от:



   Похожие торренты   Торрент   Размер 
В этой теме нет новых непрочитанных сообщений. Мост / Bron / Broen / The Bridge [S02] (2013) BDRip 720p от qqss44 | Amedia

53 | 21

28.34 ГБ

В этой теме нет новых непрочитанных сообщений. Мост / Bron / Broen / The Bridge [S02] (2013) HDTVRip 720p | Amedia

39 | 9

14.89 ГБ

В этой теме нет новых непрочитанных сообщений. Мост / Bron / Broen / The Bridge [S02] (2013) HDRip от qqss44 | Amedia

103 | 25

9.34 ГБ

В этой теме нет новых непрочитанных сообщений. Мост / Bron / Broen / The Bridge [S02] (2013) HDRip от Scarabey | Amedia

717 | 78

9.39 ГБ

В этой теме нет новых непрочитанных сообщений. Мост / Bron/Broen / The Bridge [S01] (2011) BDRip 720p от MediaClub

149 | 39

18.45 ГБ

В этой теме нет новых непрочитанных сообщений. Мост / Bron / Broen / The Bridge [S01] (2011) HDRip от Scarabey | Amedia

1051 | 199

7.62 ГБ

В этой теме нет новых непрочитанных сообщений. Мост / Bron / Broen / The Bridge [S01] (2011) BDRip-AVC от MediaClub

294 | 31

10.67 ГБ




Вы не можете начинать темы
Вы не можете отвечать на сообщения
Вы не можете редактировать свои сообщения
Вы не можете удалять свои сообщения
Вы не можете добавлять вложения

Перейти:  
Для Мосгорсуда, Роскомнадзора и рекламодателей: mosgorsud-torrent[собачка]yandex.ru
 Вход
ppkBB3cker v.2 © 2008-2014 @ PPK
[ Time : 0.057s | 15 Queries | GZIP : On ]

Торрент трекер RUTOR.IN, Не можете зайти на rutor.org? Какой новый адрес рутор? Какое зеркало рутор? Не работает rutor.org и зеркала? Тогда наш торрент специально для вас. Rutor.in неофициальное зеркало rutor. В случае если у Вас заблокирован rutor или вдруг Вы не можете на него зайти, то Вы без труда сможете скачать бесплатно и без рекламы последние новинки кино, игр, сериалов и прочего у нас, на Rutor.in. Не нужно использовать прокси, чтобы зайти на рутор, достаточно воспользоваться нашим ресурсом. Все новые фильмы, игры, сериалы, книги и музыка за 2013 и 2014 годы через торрент бесплатно. Скачивайте фильмы в хорошем качестве, игры для пк, xbox, playstation без регистрации. У нас вы найдете новые Зарубежные сериалы и Русские сериалы 2013, 2014, 2015 годов. Оставайтесь с нами, качайте любимые фильмы, игры, сериалы, книги и музыку.