img image001 image001 image001 image001 image001 image001 image001 image001 image001 image001 image001 image001 image001 image001 image001

Planets Sun Sun Sun
Статистика раздачи
Автор: Nickolas3434 | Размер: 1.96 ГБ | Добавлен: 08 мар 2014
Раздают: 2433    Качают: 620
Скачать торрент
Скачать торрент
Описание торрента

СообщениеДобавлено: 08 мар 2014 


Страна: Россия
Производство: Berg Sound
Жанр: Боевик
Год выпуска: 2014

Продолжительность: 4 х 00:46:00
Язык: Русский

Режиссер: Карен Адамян
В ролях: Юрий Кормушин, Марина Вайнбранд, Влад Канопка, Анастасия Сметанина, Олег Шкловский, Павел Кузьмин, Вячеслав Кулаков, Михаил Хмуров, Леонид Евтифьев, Владимир Стеклов
Описание: В российском городе Торбинске происходит цепь загадочных убийств среди криминальных авторитетов. По слухам и разговорам за этими убийствами стоит загадочная личность «Шахматист», но никто его не знает и никогда не видел. И полиция и весь криминальный мир Торбинска ищут этого самого «Шахматиста». В это же время в город приезжает Влад Артемьев — преподаватель истории Востока и мастер восточных боевых искусств. В силу ряда причин подозрение падает на него. Чтобы доказать свою невиновность и найти истинного «Шахматиста» Влад скрывается и начинает собственные поиски. В этом ему помогают студентка Кристина и компьютерный гений Ульяна. В результате многочисленных перипетий Владу удается найти и обезвредить «Шахматиста» и тем самым доказать свою непричастность к происходящим в городе беспорядкам.

Исходник: DVD9 R5

Тип релиза: DVDRip

Контейнер: AVI
Видео: XviD, ~ 1318 Кбит/с, 720х400
Аудио: АС3, 2 ch, 192 Кбит/с
Общее
Полное имя : D:8СИНДРОМ ШАХМАТИСТА1 серия.avi
Формат : AVI
Формат/Информация : Audio Video Interleave
Размер файла : 501 Мбайт
Продолжительность : 46 м.
Общий поток : 1516 Кбит/сек
Программа кодирования : VirtualDubMod 1.5.10.3 | www.virtualdub-fr.org || (build 2550/release)
Библиотека кодирования : VirtualDubMod build 2550/release

Видео
Идентификатор : 0
Формат : MPEG-4 Visual
Профиль формата : Advanced Simple@L5
Параметр BVOP формата : 2
Параметр QPel формата : Нет
Параметр GMC формата : Без точки перехода
Параметр матрицы формата : Default (MPEG)
Режим смешивания : Сжатый битовый поток
Идентификатор кодека : XVID
Идентификатор кодека/Подсказка : XviD
Продолжительность : 46 м.
Битрейт : 1315 Кбит/сек
Ширина : 720 пикселей
Высота : 400 пикселей
Соотношение сторон : 16:9
Частота кадров : 23,976 кадра/сек
Цветовое пространство : YUV
Субдискретизация насыщенности : 4:2:0
Битовая глубина : 8 бит
Тип развёртки : Прогрессивная
Метод сжатия : С потерями
Бит/(Пиксели*Кадры) : 0.190
Размер потока : 435 Мбайт (87%)
Библиотека кодирования : XviD 1.2.1 (UTC 2008-12-04)

Аудио
Идентификатор : 1
Формат : AC-3
Формат/Информация : Audio Coding 3
Расширение режима : CM (complete main)
Параметр Endianness формата : Big
Идентификатор кодека : 2000
Продолжительность : 46 м.
Вид битрейта : Постоянный
Битрейт : 192 Кбит/сек
Каналы : 2 канала
Расположение каналов : Front: L R
Частота : 48,0 КГц
Битовая глубина : 16 бит
Метод сжатия : С потерями
Размер потока : 63,5 Мбайт (13%)
Выравнивание : Разделение по промежуткам
Продолжительность промежутка : 42 мс. (1,00 видеокадр)
Время предзагрузки промежутка : 500 мс.





Релиз группа:

Автор рипа:



   Похожие торренты   Торрент   Размер 
В этой теме нет новых непрочитанных сообщений. Синдром Шахматиста [01-04 из 04] (2014) DVDRip-AVC от MediaClub

1739 | 296

2.14 ГБ

В этой теме нет новых непрочитанных сообщений. Синдром Шахматиста [01-04 из 4] (2014) DVDRip | Лицензия

1453 | 376

2.73 ГБ

В этой теме нет новых непрочитанных сообщений. S.T.A.L.K.E.R.: - Народная Солянка + Поиски чернобыльского Шахматиста (2013) PC | Mod

83 | 16

3.06 ГБ

В этой теме нет новых непрочитанных сообщений. S.T.A.L.K.E.R.: - Народная Солянка + Поиски чернобыльского Шахматиста (2013) PC | RePack by SeregA-Lus

614 | 21

5.58 ГБ

В этой теме нет новых непрочитанных сообщений. Синдром дракона [01-12 из 12] (2012) DVDRip

130 | 14

8.24 ГБ

В этой теме нет новых непрочитанных сообщений. Синдром / Síndrome (2004) DVDRip

5 | 8

1.3 ГБ

В этой теме нет новых непрочитанных сообщений. Синдром дракона [01-12 из 12] (2012) DVDRip от Generalfilm | КПК

27 | 13

2.49 ГБ




Вы не можете начинать темы
Вы не можете отвечать на сообщения
Вы не можете редактировать свои сообщения
Вы не можете удалять свои сообщения
Вы не можете добавлять вложения

Перейти:  
Для Мосгорсуда, Роскомнадзора и рекламодателей: mosgorsud-torrent[собачка]yandex.ru
 Вход
ppkBB3cker v.2 © 2008-2014 @ PPK
[ Time : 0.073s | 15 Queries | GZIP : Off ]

Торрент трекер RUTOR.IN, Не можете зайти на rutor.org? Какой новый адрес рутор? Какое зеркало рутор? Не работает rutor.org и зеркала? Тогда наш торрент специально для вас. Rutor.in неофициальное зеркало rutor. В случае если у Вас заблокирован rutor или вдруг Вы не можете на него зайти, то Вы без труда сможете скачать бесплатно и без рекламы последние новинки кино, игр, сериалов и прочего у нас, на Rutor.in. Не нужно использовать прокси, чтобы зайти на рутор, достаточно воспользоваться нашим ресурсом. Все новые фильмы, игры, сериалы, книги и музыка за 2013 и 2014 годы через торрент бесплатно. Скачивайте фильмы в хорошем качестве, игры для пк, xbox, playstation без регистрации. У нас вы найдете новые Зарубежные сериалы и Русские сериалы 2013, 2014, 2015 годов. Оставайтесь с нами, качайте любимые фильмы, игры, сериалы, книги и музыку.